<?xml version="1.0" standalone="no"?>
<!DOCTYPE svg PUBLIC "-//W3C//DTD SVG 1.1//EN" "http://www.w3.org/Graphics/SVG/1.1/DTD/svg11.dtd" >
<svg xmlns="http://www.w3.org/2000/svg" xmlns:xlink="http://www.w3.org/1999/xlink" version="1.1">
<metadata>
Created by FontForge 20201107 at Wed May 16 09:51:55 2007
 By Unknown
Copyright 1990-1999 as an unpublished work by Bitstream Inc.  All rights reserved.  Confidential.
</metadata>
<defs>
<font id="NewsGothicBT-Roman" horiz-adv-x="602" >
  <font-face 
    font-family="News Gothic"
    font-weight="500"
    font-stretch="normal"
    units-per-em="1000"
    panose-1="0 0 0 0 0 0 0 0 0 0"
    ascent="800"
    descent="-200"
    x-height="523"
    cap-height="723"
    bbox="-167 -236 1220 960"
    underline-thickness="52"
    underline-position="-121"
    stemh="61"
    stemv="71"
    unicode-range="U+0020-FB02"
  />
<missing-glyph horiz-adv-x="301" 
 />
    <glyph glyph-name=".notdef" horiz-adv-x="301" 
 />
    <glyph glyph-name="space" unicode=" " horiz-adv-x="301" 
 />
    <glyph glyph-name="exclam" unicode="!" horiz-adv-x="309" 
d="M105 0v113h98v-113h-98zM129 232l-22 491h94l-22 -491h-50z" />
    <glyph glyph-name="quotedbl" unicode="&#x22;" horiz-adv-x="288" 
d="M103 700v-270h-57v270h57zM242 700v-270h-58v270h58z" />
    <glyph glyph-name="numbersign" unicode="#" horiz-adv-x="769" 
d="M450 711l-81 -230h127l82 230h70l-80 -230h150l-21 -60h-152l-46 -133h161l-21 -60h-162l-81 -229h-71l82 229h-129l-82 -229h-70l81 229h-156l21 60h156l47 133h-167l21 60h168l82 230h71zM475 421h-129l-46 -133h128z" />
    <glyph glyph-name="dollar" unicode="$" 
d="M278 -97v95c-96 7 -170 51 -221 131l57 43c38 -68 93 -107 164 -115v284c-137 43 -200 97 -200 193c0 107 72 178 200 187v66h55v-67c86 -6 148 -43 196 -119l-56 -41c-34 64 -79 97 -140 101v-263c145 -36 215 -100 215 -207c0 -111 -79 -183 -215 -193v-95h-55zM333 58
c89 4 145 56 145 127c0 69 -48 113 -145 140v-267zM278 415v247c-84 -5 -131 -49 -131 -117c0 -62 42 -99 131 -130z" />
    <glyph glyph-name="percent" unicode="%" horiz-adv-x="850" 
d="M52 568c0 93 73 166 166 166s165 -73 165 -166s-73 -165 -165 -165s-166 72 -166 165zM190 -12l413 746h55l-412 -746h-56zM115 568c0 -57 46 -103 103 -103s102 45 102 103s-44 103 -102 103s-103 -45 -103 -103zM465 154c0 93 72 165 165 165s166 -72 166 -165
s-74 -166 -166 -166s-165 73 -165 166zM528 154c0 -57 45 -103 102 -103s103 45 103 103s-45 102 -103 102s-102 -44 -102 -102z" />
    <glyph glyph-name="ampersand" unicode="&#x26;" horiz-adv-x="639" 
d="M453 71c-65 -56 -131 -83 -203 -83c-131 0 -214 84 -214 207c0 92 51 161 158 221c-36 58 -55 112 -55 168c0 91 60 151 150 151c91 0 146 -53 146 -137c0 -79 -48 -143 -144 -203c55 -92 109 -163 160 -214c37 59 56 121 65 181l68 -11c-11 -83 -39 -156 -83 -216
c32 -33 73 -54 115 -59v-78c-63 4 -114 26 -163 73zM257 444c72 48 108 92 108 151c0 52 -28 83 -76 83c-47 0 -78 -36 -78 -92c0 -38 15 -85 46 -142zM406 120c-68 65 -129 145 -181 240c-76 -49 -114 -102 -114 -162c0 -81 59 -143 144 -143c54 0 107 22 151 65z" />
    <glyph glyph-name="quoteright" unicode="&#x2019;" horiz-adv-x="231" 
d="M162 723v-109l-62 -149h-50l54 153h-38v105h96z" />
    <glyph glyph-name="parenleft" unicode="(" horiz-adv-x="328" 
d="M200 -81c-93 132 -139 262 -139 408s46 276 139 408h77c-97 -133 -143 -260 -143 -408s46 -275 143 -408h-77z" />
    <glyph glyph-name="parenright" unicode=")" horiz-adv-x="328" 
d="M51 -81c97 133 143 260 143 408s-46 275 -143 408h77c93 -132 139 -262 139 -408s-46 -276 -139 -408h-77z" />
    <glyph glyph-name="asterisk" unicode="*" horiz-adv-x="500" 
d="M250 488l-84 -144l-63 47l111 123l-161 37l23 73l152 -68l-12 167h68l-12 -167l152 68l23 -73l-161 -37l111 -123l-63 -47z" />
    <glyph glyph-name="plus" unicode="+" horiz-adv-x="833" 
d="M446 596v-269h263v-57h-263v-270h-58v270h-264v57h264v269h58z" />
    <glyph glyph-name="comma" unicode="," horiz-adv-x="301" 
d="M95 -149l55 156h-42v104h97v-117l-61 -145z" />
    <glyph glyph-name="hyphen" unicode="-" horiz-adv-x="330" 
d="M41 228v67h244v-67h-244z" />
    <glyph glyph-name="period" unicode="." horiz-adv-x="301" 
d="M102 0v110h97v-110h-97z" />
    <glyph glyph-name="slash" unicode="/" horiz-adv-x="272" 
d="M286 735l-269 -828h-58l268 828h59z" />
    <glyph glyph-name="zero" unicode="0" 
d="M50 361c0 245 89 373 251 373s251 -128 251 -373s-89 -373 -251 -373s-251 128 -251 373zM126 361c0 -204 60 -308 175 -308s174 104 174 308s-59 308 -174 308c-113 0 -175 -104 -175 -308z" />
    <glyph glyph-name="one" unicode="1" 
d="M340 734v-669h119v-65h-312v65h122v584l-134 -15v50c59 16 108 33 147 50h58z" />
    <glyph glyph-name="two" unicode="2" 
d="M50 0v68c33 75 86 140 159 204c58 51 121 86 162 129c44 46 67 88 67 135c0 84 -53 135 -138 135c-88 0 -149 -55 -170 -155l-70 15c29 133 112 203 242 203c132 0 213 -76 213 -195c0 -50 -12 -91 -38 -127c-45 -64 -116 -110 -193 -168c-81 -61 -135 -120 -160 -177
h392v-67h-466z" />
    <glyph glyph-name="three" unicode="3" 
d="M34 132l62 43c45 -81 110 -122 191 -122c101 0 161 54 161 145c0 102 -71 155 -209 155c-9 0 -27 0 -55 -2v69c22 -1 40 -2 54 -2c124 0 189 49 189 138c0 70 -51 114 -134 114c-69 0 -120 -32 -167 -100l-57 43c59 81 133 121 227 121c128 0 207 -70 207 -175
c0 -80 -38 -138 -111 -169c88 -34 134 -98 134 -185c0 -131 -90 -217 -236 -217c-114 0 -201 49 -256 144z" />
    <glyph glyph-name="four" unicode="4" 
d="M366 233v423l-246 -423h246zM437 722v-489h119v-62h-119v-183h-71v183h-325v51l293 500h103z" />
    <glyph glyph-name="five" unicode="5" 
d="M68 129l66 38c40 -76 97 -116 166 -116c103 0 170 75 170 199c0 108 -65 178 -159 178c-72 0 -125 -40 -149 -112l-65 16l31 390h370v-67h-308l-19 -227c44 45 88 63 151 63c132 0 225 -94 225 -244c0 -154 -100 -259 -245 -259c-110 0 -189 48 -234 141z" />
    <glyph glyph-name="six" unicode="6" 
d="M140 364c53 62 115 93 186 93c132 0 223 -92 223 -238c0 -135 -97 -230 -238 -230c-165 0 -251 114 -251 336c0 256 115 408 288 408c59 0 111 -13 164 -42l-32 -62c-35 24 -77 37 -130 37c-125 0 -210 -111 -210 -302zM139 256c5 -128 73 -203 173 -203
c91 0 159 71 159 168c0 106 -61 172 -154 172c-74 0 -137 -47 -178 -137z" />
    <glyph glyph-name="seven" unicode="7" 
d="M137 -12l306 667h-370v67h453v-48l-306 -686h-83z" />
    <glyph glyph-name="eight" unicode="8" 
d="M207 383c-86 33 -131 91 -131 169c0 107 86 182 224 182c145 0 231 -72 231 -179c0 -79 -44 -136 -131 -169c107 -43 157 -107 157 -204c0 -120 -94 -194 -258 -194c-157 0 -250 76 -250 199c0 86 55 157 158 196zM309 417c102 33 146 69 146 140c0 70 -59 116 -156 116
c-90 0 -151 -50 -151 -114c0 -62 52 -107 161 -142zM289 352c-110 -42 -164 -93 -164 -166c0 -75 68 -132 173 -132c116 0 183 51 183 132c0 80 -61 122 -192 166z" />
    <glyph glyph-name="nine" unicode="9" 
d="M466 358c-53 -62 -115 -93 -186 -93c-133 0 -222 91 -222 238c0 134 97 230 237 230c165 0 252 -114 252 -336c0 -257 -117 -409 -293 -409c-65 0 -119 14 -160 43l32 62c35 -24 77 -38 130 -38c125 0 210 112 210 303zM467 466c-5 128 -73 203 -173 203
c-91 0 -159 -71 -159 -168c0 -106 62 -172 155 -172c74 0 136 47 177 137z" />
    <glyph glyph-name="colon" unicode=":" horiz-adv-x="309" 
d="M106 289v110h97v-110h-97zM106 0v110h97v-110h-97z" />
    <glyph glyph-name="semicolon" unicode=";" horiz-adv-x="309" 
d="M114 289v110h95v-110h-95zM99 -149l55 156h-42v104h97v-117l-61 -145z" />
    <glyph glyph-name="less" unicode="&#x3c;" horiz-adv-x="833" 
d="M704 497l-488 -199l488 -198v-63l-575 236v50l575 236v-62z" />
    <glyph glyph-name="equal" unicode="=" horiz-adv-x="833" 
d="M709 420v-57h-585v57h585zM709 233v-57h-585v57h585z" />
    <glyph glyph-name="greater" unicode="&#x3e;" horiz-adv-x="833" 
d="M704 323v-50l-575 -236v63l488 198l-488 199v62z" />
    <glyph glyph-name="question" unicode="?" horiz-adv-x="439" 
d="M151 230c-1 12 -1 22 -1 33c0 58 11 96 45 140c54 70 103 118 103 183c0 51 -34 85 -82 85c-45 0 -73 -25 -97 -80l-63 33c35 74 88 111 164 111c95 0 157 -59 157 -155c0 -46 -17 -88 -51 -132c-30 -39 -62 -68 -82 -97c-21 -30 -26 -58 -26 -96c0 -8 1 -16 1 -25h-68z
M134 0v110h96v-110h-96z" />
    <glyph glyph-name="at" unicode="@" horiz-adv-x="1000" 
d="M587 231l29 118c-11 59 -49 93 -101 93c-96 0 -167 -98 -167 -224c0 -72 35 -112 96 -112c65 0 124 49 143 125zM631 412l28 59h54l-69 -277c-4 -16 -6 -29 -6 -39c0 -29 18 -44 54 -44c26 0 65 14 99 43c56 48 93 130 93 220c0 170 -135 288 -349 288
c-109 0 -204 -34 -279 -100c-92 -80 -138 -186 -138 -311c0 -112 38 -196 121 -261c64 -51 157 -82 261 -82c111 0 220 32 308 92l22 -32c-96 -72 -205 -108 -322 -108c-124 0 -227 30 -305 90c-99 76 -148 176 -148 305c0 107 34 203 98 282c94 114 228 175 392 175
c110 0 208 -31 273 -82c84 -65 128 -152 128 -250c0 -112 -43 -204 -120 -266c-45 -36 -98 -55 -152 -55c-64 0 -97 25 -97 76c0 3 1 7 1 11c-33 -57 -84 -87 -145 -87c-100 0 -153 57 -153 162c0 153 104 268 229 268c59 0 100 -26 122 -77z" />
    <glyph glyph-name="A" unicode="A" 
d="M17 0l223 723h122l222 -723h-84l-65 225h-269l-64 -225h-85zM185 292h228l-108 377h-11z" />
    <glyph glyph-name="B" unicode="B" horiz-adv-x="641" 
d="M97 0v723h196c190 0 280 -50 280 -182c0 -76 -40 -131 -118 -160c86 -33 139 -96 139 -186c0 -129 -93 -195 -277 -195h-220zM308 658h-132v-245h154c105 0 162 46 162 128c0 81 -60 117 -184 117zM325 346h-149v-277h149c128 0 187 40 187 136c0 91 -64 141 -187 141z
" />
    <glyph glyph-name="C" unicode="C" horiz-adv-x="604" 
d="M579 217c-35 -153 -120 -229 -255 -229c-176 0 -278 133 -278 374c0 238 108 373 272 373c134 0 218 -73 249 -216l-75 -19c-22 109 -82 167 -167 167c-124 0 -198 -107 -198 -308c0 -196 75 -302 200 -302c94 0 159 62 179 176z" />
    <glyph glyph-name="D" unicode="D" horiz-adv-x="678" 
d="M97 0v723h172c97 0 168 -12 228 -57c79 -60 125 -166 125 -304c0 -240 -124 -362 -371 -362h-154zM251 656h-75v-585h64c92 0 159 9 210 50c60 47 94 130 94 240c0 116 -33 200 -95 248c-54 42 -116 47 -198 47z" />
    <glyph glyph-name="E" unicode="E" horiz-adv-x="571" 
d="M97 0v723h427v-68h-347v-241h246v-68h-246v-277h364v-69h-444z" />
    <glyph glyph-name="F" unicode="F" horiz-adv-x="537" 
d="M97 0v723h424v-68h-344v-241h255v-68h-255v-346h-80z" />
    <glyph glyph-name="G" unicode="G" horiz-adv-x="660" 
d="M522 0l-3 79c-45 -62 -107 -91 -191 -91c-172 0 -283 138 -283 370c0 241 107 377 286 377c127 0 211 -71 251 -212l-82 -16c-28 105 -85 159 -172 159c-127 0 -201 -106 -201 -302c0 -197 79 -307 206 -307c105 0 175 64 175 174v51h-167v69h250v-351h-69z" />
    <glyph glyph-name="H" unicode="H" horiz-adv-x="715" 
d="M97 0v723h79v-309h363v309h79v-723h-79v344h-363v-344h-79z" />
    <glyph glyph-name="I" unicode="I" horiz-adv-x="285" 
d="M102 0v723h81v-723h-81z" />
    <glyph glyph-name="J" unicode="J" horiz-adv-x="439" 
d="M3 82l63 44c31 -49 58 -70 105 -70c76 0 95 47 95 144v523h78v-531c0 -134 -61 -204 -173 -204c-74 0 -126 28 -168 94z" />
    <glyph glyph-name="K" unicode="K" horiz-adv-x="623" 
d="M102 0v723h79v-381l305 381h88l-226 -278l258 -445h-93l-217 383l-115 -140v-243h-79z" />
    <glyph glyph-name="L" unicode="L" horiz-adv-x="521" 
d="M102 0v723h82v-654h323v-69h-405z" />
    <glyph glyph-name="M" unicode="M" horiz-adv-x="838" 
d="M97 0v723h123l202 -611l203 611h116v-723h-77v637l-218 -637h-54l-218 637v-637h-77z" />
    <glyph glyph-name="N" unicode="N" horiz-adv-x="715" 
d="M97 0v723h114l332 -564v564h75v-723h-62l-384 640v-640h-75z" />
    <glyph glyph-name="O" unicode="O" horiz-adv-x="664" 
d="M46 362c0 231 115 373 286 373s286 -141 286 -373s-115 -374 -286 -374s-286 143 -286 374zM127 362c0 -195 79 -304 205 -304s205 109 205 304s-79 304 -205 304s-205 -109 -205 -304z" />
    <glyph glyph-name="P" unicode="P" 
d="M97 0v723h210c171 0 253 -61 253 -197c0 -129 -84 -203 -230 -203h-155v-323h-78zM175 391h123c126 0 180 34 180 136c0 97 -59 129 -186 129h-117v-265z" />
    <glyph glyph-name="Q" unicode="Q" horiz-adv-x="664" 
d="M482 33c-47 -31 -95 -45 -150 -45c-171 0 -286 142 -286 374s115 373 286 373s286 -141 286 -373c0 -113 -27 -205 -82 -276c26 -42 58 -63 101 -65v-80h-3c-64 0 -112 30 -152 92zM443 93c-25 41 -52 61 -87 63v77c53 0 95 -26 135 -80c30 51 46 120 46 202
c0 201 -77 311 -205 311c-126 0 -205 -109 -205 -304s79 -304 205 -304c43 0 78 10 111 35z" />
    <glyph glyph-name="R" unicode="R" horiz-adv-x="654" 
d="M97 0v723h203c195 0 289 -53 289 -191c0 -94 -50 -156 -150 -185l170 -347h-88l-159 328h-186v-328h-79zM300 656h-124v-261h121c145 0 211 36 211 130c0 106 -63 131 -208 131z" />
    <glyph glyph-name="S" unicode="S" horiz-adv-x="560" 
d="M34 181l76 25c26 -93 94 -149 176 -149c93 0 151 51 151 126c0 45 -16 78 -49 100c-47 32 -106 48 -168 72c-112 44 -166 93 -166 187c0 116 83 193 212 193c112 0 192 -62 226 -177l-72 -21c-24 86 -81 131 -162 131c-78 0 -127 -46 -127 -118c0 -35 16 -63 47 -88
c31 -24 85 -40 154 -66c124 -47 182 -96 182 -208c0 -119 -87 -200 -224 -200c-129 0 -216 65 -256 193z" />
    <glyph glyph-name="T" unicode="T" horiz-adv-x="549" 
d="M233 0v654h-211v69h504v-69h-211v-654h-82z" />
    <glyph glyph-name="U" unicode="U" horiz-adv-x="711" 
d="M95 723h79v-466c0 -45 1 -83 19 -118c26 -51 84 -82 162 -82c79 0 137 31 163 82c19 38 19 80 19 131v453h79v-479c0 -168 -91 -256 -261 -256c-171 0 -260 87 -260 256v479z" />
    <glyph glyph-name="V" unicode="V" horiz-adv-x="590" 
d="M259 0l-244 723h82l195 -586h6l196 586h81l-246 -723h-70z" />
    <glyph glyph-name="W" unicode="W" horiz-adv-x="911" 
d="M233 0l-211 723h81l154 -542h5l157 542h73l157 -542h5l154 542h80l-210 -723h-52l-171 587l-170 -587h-52z" />
    <glyph glyph-name="X" unicode="X" horiz-adv-x="548" 
d="M8 0l222 385l-200 338h92l153 -269l148 269h92l-195 -338l220 -385h-93l-172 314l-176 -314h-91z" />
    <glyph glyph-name="Y" unicode="Y" horiz-adv-x="549" 
d="M235 0v305l-220 418h87l172 -334l173 334h87l-220 -418v-305h-79z" />
    <glyph glyph-name="Z" unicode="Z" horiz-adv-x="546" 
d="M39 0v53l366 603h-331v67h426v-51l-366 -603h363v-69h-458z" />
    <glyph glyph-name="bracketleft" unicode="[" horiz-adv-x="326" 
d="M75 -71v794h200v-44h-128v-706h128v-44h-200z" />
    <glyph glyph-name="backslash" unicode="\" horiz-adv-x="272" 
d="M255 -93l-269 828h58l269 -828h-58z" />
    <glyph glyph-name="bracketright" unicode="]" horiz-adv-x="326" 
d="M50 -71v44h129v706h-129v44h201v-794h-201z" />
    <glyph glyph-name="asciicircum" unicode="^" horiz-adv-x="1000" 
d="M539 712l254 -272h-77l-216 214l-216 -214h-78l254 272h79z" />
    <glyph glyph-name="underscore" unicode="_" horiz-adv-x="500" 
d="M500 -178v-58h-500v58h500z" />
    <glyph glyph-name="quoteleft" unicode="&#x2018;" horiz-adv-x="231" 
d="M69 465v110l62 148h50l-54 -152h39v-106h-97z" />
    <glyph glyph-name="a" unicode="a" horiz-adv-x="505" 
d="M352 71c-48 -52 -103 -79 -166 -79c-85 0 -144 59 -144 144c0 115 100 172 313 213v38c0 47 -42 82 -105 82c-56 0 -101 -28 -128 -82l-63 34c39 74 105 111 195 111c110 0 175 -56 175 -155v-292c0 -28 4 -54 11 -77v-8h-80zM355 137v144c-163 -33 -241 -72 -241 -146
c0 -47 32 -78 85 -78c46 0 96 27 156 80z" />
    <glyph glyph-name="b" unicode="b" horiz-adv-x="538" 
d="M76 0c5 57 7 113 7 166v557h72v-262c32 47 75 71 133 71c134 0 213 -97 213 -273c0 -174 -77 -268 -214 -268c-61 0 -105 23 -138 72l-17 -63h-56zM155 131c37 -54 80 -80 136 -80c83 0 135 72 135 204c0 144 -47 215 -143 215c-52 0 -96 -26 -128 -78v-261z" />
    <glyph glyph-name="c" unicode="c" horiz-adv-x="469" 
d="M446 126c-43 -91 -109 -135 -199 -135c-136 0 -210 94 -210 271c0 172 80 271 210 271c90 0 158 -51 189 -141l-72 -23c-21 66 -65 101 -119 101c-85 0 -134 -71 -134 -208c0 -139 48 -209 138 -209c54 0 104 36 136 105z" />
    <glyph glyph-name="d" unicode="d" horiz-adv-x="538" 
d="M456 723v-560c0 -54 0 -108 7 -163h-56l-17 66c-39 -52 -82 -74 -146 -74c-128 0 -206 98 -206 272c0 173 77 268 210 268c62 0 107 -23 136 -69v260h72zM384 392c-37 54 -80 80 -136 80c-83 0 -135 -71 -135 -203c0 -144 47 -216 143 -216c52 0 96 26 128 78v261z" />
    <glyph glyph-name="e" unicode="e" horiz-adv-x="481" 
d="M404 147l53 -33c-41 -84 -109 -123 -209 -123c-135 0 -210 93 -210 271c0 172 80 270 204 270c127 0 204 -94 204 -263v-22h-333v-17c0 -111 58 -177 142 -177c65 0 118 33 149 94zM114 309h255c-2 103 -52 161 -126 161c-77 0 -125 -57 -129 -161z" />
    <glyph glyph-name="f" unicode="f" horiz-adv-x="278" 
d="M91 0v461h-88v62h88v74c0 91 40 136 122 136c18 0 39 -3 64 -9v-60c-22 5 -40 7 -54 7c-40 0 -60 -23 -60 -68v-80h110v-62h-110v-461h-72z" />
    <glyph glyph-name="g" unicode="g" horiz-adv-x="486" 
d="M110 42c-43 15 -63 40 -63 79c0 37 23 60 70 87c-43 31 -66 78 -66 142c0 112 72 183 193 183c49 0 90 -13 123 -39c34 30 63 46 96 46h13v-68h-15c-31 0 -51 -3 -61 -16c21 -30 29 -63 29 -103c0 -111 -73 -181 -189 -181c-26 0 -52 4 -78 11c-29 -11 -44 -29 -44 -47
c0 -41 51 -35 150 -44c139 -13 206 -40 206 -141c0 -91 -80 -141 -236 -141c-143 0 -215 42 -215 127c0 51 27 81 87 105zM119 357c0 -80 44 -126 122 -126c75 0 120 46 120 120c0 76 -47 124 -124 124c-72 0 -118 -46 -118 -118zM93 -52c0 -51 49 -79 144 -79
c111 0 166 25 166 79c0 53 -54 77 -167 77c-93 0 -143 -29 -143 -77z" />
    <glyph glyph-name="h" unicode="h" horiz-adv-x="550" 
d="M82 0v723h72v-277c57 59 110 86 177 86c90 0 141 -52 141 -145v-387h-71v360c0 75 -23 109 -89 109c-56 0 -108 -26 -158 -79v-390h-72z" />
    <glyph glyph-name="i" unicode="i" horiz-adv-x="248" 
d="M87 0v523h74v-523h-74zM81 635v88h86v-88h-86z" />
    <glyph glyph-name="j" unicode="j" horiz-adv-x="251" 
d="M0 -121c13 -3 26 -4 39 -4c40 0 51 20 51 66v582h74v-565c0 -99 -17 -148 -118 -148c-17 0 -32 2 -46 7v62zM84 635v88h87v-88h-87z" />
    <glyph glyph-name="k" unicode="k" horiz-adv-x="491" 
d="M82 0v723h73v-467l232 267h80l-168 -190l186 -333h-80l-155 277l-95 -105v-172h-73z" />
    <glyph glyph-name="l" unicode="l" horiz-adv-x="248" 
d="M87 0v723h73v-723h-73z" />
    <glyph glyph-name="m" unicode="m" horiz-adv-x="829" 
d="M80 0v523h67v-79c56 60 106 88 171 88c70 0 109 -36 126 -88c56 60 108 88 173 88c85 0 134 -52 134 -145v-387h-72v364c0 72 -22 105 -82 105c-53 0 -100 -26 -147 -79v-390h-69v362c0 73 -23 107 -83 107c-54 0 -98 -26 -146 -79v-390h-72z" />
    <glyph glyph-name="n" unicode="n" horiz-adv-x="536" 
d="M82 0v523h67v-79c56 59 110 88 173 88c86 0 136 -52 136 -145v-387h-71v360c0 75 -22 109 -84 109c-52 0 -101 -26 -149 -79v-390h-72z" />
    <glyph glyph-name="o" unicode="o" horiz-adv-x="503" 
d="M34 262c0 174 82 270 218 270s218 -96 218 -270s-82 -271 -218 -271s-218 97 -218 271zM108 262c0 -138 52 -210 144 -210c91 0 143 72 143 209c0 138 -51 209 -143 209s-144 -71 -144 -208z" />
    <glyph glyph-name="p" unicode="p" horiz-adv-x="541" 
d="M82 -190v713h56l12 -64c37 47 77 73 140 73c137 0 217 -97 217 -273c0 -174 -78 -268 -218 -268c-59 0 -102 21 -135 65v-246h-72zM154 131c39 -55 82 -80 140 -80c87 0 138 72 138 207c0 141 -49 212 -146 212c-53 0 -99 -26 -132 -78v-261z" />
    <glyph glyph-name="q" unicode="q" horiz-adv-x="538" 
d="M461 523c-5 -57 -7 -113 -7 -166v-547h-72v252c-32 -47 -75 -71 -133 -71c-134 0 -213 97 -213 273c0 172 77 268 207 268c65 0 114 -24 145 -72l17 63h56zM382 392c-37 54 -80 80 -136 80c-83 0 -135 -71 -135 -203c0 -144 47 -216 143 -216c52 0 96 26 128 78v261z" />
    <glyph glyph-name="r" unicode="r" horiz-adv-x="324" 
d="M82 0v523h74v-119c35 84 82 125 151 125c6 0 11 0 17 -1v-72h-9c-71 0 -127 -57 -159 -165v-291h-74z" />
    <glyph glyph-name="s" unicode="s" horiz-adv-x="435" 
d="M19 90l58 46c41 -56 90 -84 149 -84c64 0 105 35 105 88c0 70 -59 75 -161 106c-89 27 -132 74 -132 143c0 85 65 143 158 143c77 0 138 -28 188 -87l-48 -48c-39 50 -84 75 -136 75c-54 0 -88 -30 -88 -76c0 -22 9 -42 26 -54c35 -25 84 -31 139 -49
c87 -28 127 -72 127 -145c0 -93 -71 -157 -187 -157c-82 0 -155 36 -198 99z" />
    <glyph glyph-name="t" unicode="t" horiz-adv-x="306" 
d="M289 63v-61c-23 -8 -48 -11 -77 -11c-79 0 -119 34 -119 102v368h-78v62h78v169h76v-169h119v-62h-119v-335c0 -53 8 -71 69 -71c20 0 35 4 51 8z" />
    <glyph glyph-name="u" unicode="u" horiz-adv-x="536" 
d="M453 523v-523h-66v79c-56 -59 -111 -88 -174 -88c-86 0 -136 52 -136 145v387h72v-360c0 -75 22 -109 84 -109c52 0 100 26 148 79v390h72z" />
    <glyph glyph-name="v" unicode="v" horiz-adv-x="458" 
d="M181 0l-171 523h74l144 -448l144 448h74l-171 -523h-94z" />
    <glyph glyph-name="w" unicode="w" horiz-adv-x="730" 
d="M167 0l-145 523h71l119 -438l121 438h63l121 -438l119 438h70l-144 -523h-89l-109 392l-109 -392h-88z" />
    <glyph glyph-name="x" unicode="x" horiz-adv-x="436" 
d="M8 0l166 275l-153 248h81l113 -190l109 190h81l-148 -246l171 -277h-84l-129 222l-126 -222h-81z" />
    <glyph glyph-name="y" unicode="y" horiz-adv-x="458" 
d="M198 9l-188 514h74l152 -418l136 418h74l-179 -532c-41 -121 -80 -182 -190 -182c-16 0 -32 2 -46 6v67c18 -4 32 -5 41 -5c73 0 105 37 126 132z" />
    <glyph glyph-name="z" unicode="z" horiz-adv-x="435" 
d="M24 0v53l295 408h-266v62h354v-52l-296 -407h294v-64h-381z" />
    <glyph glyph-name="braceleft" unicode="{" horiz-adv-x="500" 
d="M419 659c-8 0 -15 1 -22 1c-86 0 -101 -30 -101 -119v-118c0 -96 -16 -142 -97 -164c81 -22 97 -68 97 -164v-118c0 -90 16 -118 104 -118h19v-61h-17c-56 0 -97 5 -128 25c-44 29 -49 77 -49 153v119c0 97 -30 134 -119 134c-7 0 -14 -1 -22 -1v62c8 0 15 -1 22 -1
c89 0 119 37 119 135v119c0 76 4 124 49 153c31 20 71 25 128 25h17v-62z" />
    <glyph glyph-name="bar" unicode="|" horiz-adv-x="500" 
d="M281 764v-1000h-62v1000h62z" />
    <glyph glyph-name="braceright" unicode="}" horiz-adv-x="500" 
d="M275 543v-119c0 -98 31 -135 120 -135c7 0 14 1 22 1v-62c-8 0 -15 1 -22 1c-89 0 -120 -37 -120 -135v-118c0 -76 -4 -125 -48 -154c-30 -20 -71 -24 -126 -24h-20v61c8 0 15 -1 22 -1c86 0 101 31 101 120v117c0 96 16 142 97 164c-81 22 -97 68 -97 164v118
c0 90 -16 119 -104 119h-19v61h17c56 0 98 -5 129 -25c44 -29 48 -77 48 -153z" />
    <glyph glyph-name="asciitilde" unicode="~" horiz-adv-x="833" 
d="M747 306c-66 -47 -129 -70 -189 -70c-29 0 -60 6 -93 17c-69 23 -128 50 -190 50c-59 0 -117 -28 -188 -78v65c68 47 131 71 189 71c52 0 97 -16 142 -32c48 -17 91 -36 141 -36c60 0 118 28 188 77v-64z" />
    <glyph glyph-name="exclamdown" unicode="&#xa1;" horiz-adv-x="309" 
d="M203 723v-113h-98v113h98zM179 491l23 -491h-95l23 491h49z" />
    <glyph glyph-name="cent" unicode="&#xa2;" 
d="M137 -104l53 147c-60 40 -94 121 -94 232c0 163 88 267 212 267c20 0 40 -2 61 -7l38 104h59l-46 -126c32 -21 60 -59 83 -113l-69 -25c-10 29 -22 51 -40 66l-134 -367c17 -7 34 -10 53 -10c62 0 110 34 137 100l63 -29c-38 -89 -107 -135 -201 -135c-28 0 -52 3 -74 13
l-42 -117h-59zM214 113l133 358c-16 6 -31 9 -45 9c-74 0 -130 -75 -130 -207c0 -76 15 -130 42 -160z" />
    <glyph glyph-name="sterling" unicode="&#xa3;" 
d="M30 -11v81c75 26 107 97 107 218c0 14 0 28 -1 43h-105v59h100c-7 54 -11 96 -11 125c0 135 81 219 207 219c119 0 199 -64 229 -185l-72 -15c-17 84 -78 136 -157 136c-81 0 -132 -55 -132 -152c0 -16 2 -59 11 -128h146v-59h-138c0 -9 1 -19 1 -28
c0 -70 -11 -126 -33 -172c69 -48 129 -72 182 -72c80 0 123 40 139 124l70 -12c-22 -122 -87 -184 -193 -184c-74 0 -149 28 -230 81c-35 -45 -75 -71 -120 -79z" />
    <glyph glyph-name="fraction" unicode="&#x2044;" horiz-adv-x="167" 
d="M-167 -12l445 746h55l-447 -746h-53z" />
    <glyph glyph-name="yen" unicode="&#xa5;" 
d="M123 722l177 -350l180 350h76l-117 -223h123v-48h-149l-50 -96h199v-48h-226v-307h-70v307h-227v48h199l-49 96h-150v48h124l-118 223h78z" />
    <glyph glyph-name="florin" unicode="&#x192;" 
d="M40 -178l12 66c17 -6 32 -9 44 -9c66 0 87 53 110 170l69 352h-109v63h122l13 64c29 138 80 206 169 206c21 0 43 -3 66 -8l-14 -64c-19 5 -33 8 -45 8c-62 0 -87 -52 -106 -155l-9 -51h113v-63h-125l-57 -300c-38 -200 -82 -286 -204 -286c-17 0 -33 2 -49 7z" />
    <glyph glyph-name="section" unicode="&#xa7;" horiz-adv-x="500" 
d="M101 -2l49 36c30 -43 67 -65 98 -65c41 0 69 28 69 62c0 43 -35 79 -86 133c-94 98 -160 157 -160 229c0 68 41 107 112 107c-39 43 -59 81 -59 120c0 66 51 115 126 115c55 0 108 -30 139 -84l-49 -35c-27 42 -60 63 -87 63c-38 0 -65 -24 -65 -57c0 -34 35 -71 93 -129
c93 -92 153 -150 153 -229c0 -57 -42 -98 -112 -100c40 -45 59 -88 59 -131c0 -75 -56 -123 -128 -123c-60 0 -117 32 -152 88zM134 402c0 -29 21 -59 58 -102c52 -59 92 -89 122 -89c31 0 55 23 55 54c0 32 -25 65 -69 113c-47 52 -80 79 -109 79s-57 -25 -57 -55z" />
    <glyph glyph-name="currency" unicode="&#xa4;" 
d="M555 203c-31 -144 -105 -215 -227 -215c-139 0 -227 99 -248 285h-80l13 46h63c-1 20 -2 34 -2 42c0 13 1 31 3 53h-77l13 46h68c21 178 110 274 247 274c114 0 184 -64 216 -196l-67 -19c-28 100 -79 150 -152 150c-91 0 -154 -74 -167 -209h277l-13 -46h-269
c-2 -23 -3 -41 -3 -54c0 -8 1 -22 2 -41h241l-14 -46h-223c16 -143 79 -220 172 -220c80 0 137 57 160 166z" />
    <glyph glyph-name="quotesingle" unicode="'" horiz-adv-x="149" 
d="M103 700v-270h-57v270h57z" />
    <glyph glyph-name="quotedblleft" unicode="&#x201c;" horiz-adv-x="405" 
d="M69 465v110l62 148h50l-54 -152h39v-106h-97zM246 465v110l62 148h50l-54 -152h39v-106h-97z" />
    <glyph glyph-name="guillemotleft" unicode="&#xab;" horiz-adv-x="498" 
d="M260 416l-126 -154l124 -156h-80l-121 156l127 154h76zM415 416l-126 -154l123 -156h-79l-122 156l128 154h76z" />
    <glyph glyph-name="guilsinglleft" unicode="&#x2039;" horiz-adv-x="343" 
d="M260 416l-126 -154l124 -156h-80l-121 156l127 154h76z" />
    <glyph glyph-name="guilsinglright" unicode="&#x203a;" horiz-adv-x="343" 
d="M78 106l125 154l-123 156h79l122 -156l-127 -154h-76z" />
    <glyph glyph-name="fi" unicode="&#xfb01;" horiz-adv-x="506" 
d="M349 0v523h73v-523h-73zM343 635v88h86v-88h-86zM91 0v461h-88v62h88v74c0 91 40 136 122 136c18 0 39 -3 64 -9v-60c-22 5 -40 7 -54 7c-40 0 -60 -23 -60 -68v-80h110v-62h-110v-461h-72z" />
    <glyph glyph-name="fl" unicode="&#xfb02;" horiz-adv-x="506" 
d="M351 0v723h74v-723h-74zM91 0v461h-88v62h88v74c0 91 40 136 122 136c18 0 39 -3 64 -9v-60c-22 5 -40 7 -54 7c-40 0 -60 -23 -60 -68v-80h110v-62h-110v-461h-72z" />
    <glyph glyph-name="endash" unicode="&#x2013;" horiz-adv-x="500" 
d="M0 235v52h500v-52h-500z" />
    <glyph glyph-name="dagger" unicode="&#x2020;" horiz-adv-x="500" 
d="M231 -110c-1 181 -10 321 -28 419c14 64 23 122 28 175l-158 -25v87l159 -26l-27 203h90l-27 -203l160 26v-87l-161 25c6 -53 15 -111 28 -175c-16 -80 -24 -219 -26 -419h-38z" />
    <glyph glyph-name="daggerdbl" unicode="&#x2021;" horiz-adv-x="500" 
d="M204 312c16 76 25 133 27 172l-158 -25v87l159 -26l-27 203h90l-27 -203l160 26v-87l-161 25c8 -68 18 -125 30 -172c-9 -35 -21 -92 -28 -171l159 25v-87l-160 25l27 -203h-90l27 204l-159 -26v87l160 -25c-8 71 -18 128 -29 171z" />
    <glyph glyph-name="periodcentered" unicode="&#xb7;" horiz-adv-x="301" 
d="M90 356c0 34 26 60 60 60s61 -26 61 -60s-28 -61 -61 -61s-60 27 -60 61z" />
    <glyph glyph-name="paragraph" unicode="&#xb6;" horiz-adv-x="500" 
d="M463 684h-61v-684h-46v684h-90v-684h-46v382c-114 5 -183 73 -183 170c0 100 74 170 192 170h234v-38z" />
    <glyph glyph-name="bullet" unicode="&#x2022;" horiz-adv-x="590" 
d="M150 372c0 80 65 144 145 144c79 0 144 -64 144 -144c0 -79 -65 -145 -145 -145s-144 65 -144 145z" />
    <glyph glyph-name="quotesinglbase" unicode="&#x201a;" horiz-adv-x="231" 
d="M163 109v-109l-62 -149h-50l54 152h-39v106h97z" />
    <glyph glyph-name="quotedblbase" unicode="&#x201e;" horiz-adv-x="405" 
d="M162 106v-109l-62 -149h-50l54 152h-38v106h96zM224 -152l54 152h-39v106h97v-109l-62 -149h-50z" />
    <glyph glyph-name="quotedblright" unicode="&#x201d;" horiz-adv-x="405" 
d="M162 723v-109l-62 -149h-50l54 153h-38v105h96zM224 465l54 153h-39v105h97v-109l-62 -149h-50z" />
    <glyph glyph-name="guillemotright" unicode="&#xbb;" horiz-adv-x="498" 
d="M78 106l125 154l-123 156h79l122 -156l-127 -154h-76zM234 106l126 154l-123 156h79l122 -156l-128 -154h-76z" />
    <glyph glyph-name="ellipsis" unicode="&#x2026;" horiz-adv-x="1000" 
d="M118 0v110h97v-110h-97zM451 0v110h97v-110h-97zM785 0v110h97v-110h-97z" />
    <glyph glyph-name="perthousand" unicode="&#x2030;" horiz-adv-x="1275" 
d="M52 568c0 93 73 166 166 166s165 -73 165 -166s-73 -165 -165 -165s-166 72 -166 165zM190 -12l413 746h55l-412 -746h-56zM115 568c0 -57 46 -103 103 -103s102 45 102 103s-44 103 -102 103s-103 -45 -103 -103zM465 154c0 93 72 165 165 165s166 -72 166 -165
s-74 -166 -166 -166s-165 73 -165 166zM528 154c0 -57 45 -103 102 -103s103 45 103 103s-45 102 -103 102s-102 -44 -102 -102zM889 154c0 93 72 165 165 165s166 -72 166 -165s-74 -166 -166 -166s-165 73 -165 166zM951 154c0 -57 46 -103 103 -103s102 45 102 103
s-44 102 -102 102s-103 -44 -103 -102z" />
    <glyph glyph-name="questiondown" unicode="&#xbf;" horiz-adv-x="439" 
d="M281 493c1 -12 1 -22 1 -33c0 -58 -11 -96 -45 -140c-54 -70 -103 -118 -103 -183c0 -51 34 -85 82 -85c45 0 73 26 97 81l63 -34c-35 -74 -88 -111 -164 -111c-95 0 -157 59 -157 155c0 46 17 88 51 132c30 39 61 68 81 97c21 31 27 59 27 98c0 7 -1 15 -1 23h68z
M298 723v-110h-96v110h96z" />
    <glyph glyph-name="grave" unicode="`" horiz-adv-x="500" 
d="M317 587h-52l-137 170h87z" />
    <glyph glyph-name="acute" unicode="&#xb4;" horiz-adv-x="500" 
d="M183 587l102 170h87l-137 -170h-52z" />
    <glyph glyph-name="circumflex" unicode="&#x2c6;" horiz-adv-x="500" 
d="M110 587l96 170h87l96 -170h-52l-87 118l-88 -118h-52z" />
    <glyph glyph-name="tilde" unicode="&#x2dc;" horiz-adv-x="500" 
d="M392 717c-16 -62 -51 -93 -97 -93c-12 0 -22 2 -32 5l-39 13c-9 3 -18 4 -26 4c-22 0 -37 -9 -47 -31h-43c14 60 48 91 97 91c10 0 20 -2 29 -5l38 -13c10 -3 21 -5 30 -5c23 0 39 11 47 34h43z" />
    <glyph glyph-name="macron" unicode="&#xaf;" horiz-adv-x="500" 
d="M124 633v61h252v-61h-252z" />
    <glyph glyph-name="breve" unicode="&#x2d8;" horiz-adv-x="500" 
d="M112 738h44c4 -50 33 -71 94 -71s90 21 94 71h44c-7 -91 -49 -133 -138 -133c-88 0 -132 42 -138 133z" />
    <glyph glyph-name="dotaccent" unicode="&#x2d9;" horiz-adv-x="500" 
d="M209 615v97h82v-97h-82z" />
    <glyph glyph-name="dieresis" unicode="&#xa8;" horiz-adv-x="500" 
d="M133 618v91h78v-91h-78zM289 618v91h78v-91h-78z" />
    <glyph glyph-name="ring" unicode="&#x2da;" horiz-adv-x="500" 
d="M129 698c0 68 53 121 121 121s121 -53 121 -121s-53 -121 -121 -121s-121 53 -121 121zM181 698c0 -39 30 -70 69 -70s70 31 70 70s-31 70 -70 70c-40 0 -69 -31 -69 -70z" />
    <glyph glyph-name="cedilla" unicode="&#xb8;" horiz-adv-x="500" 
d="M146 -206v42c52 -12 92 -17 120 -17c39 0 59 13 59 40c0 34 -21 48 -68 48c-8 0 -16 0 -25 -1v94h36v-52h11c73 0 110 -30 110 -86c0 -58 -41 -89 -121 -89c-32 0 -72 8 -122 21z" />
    <glyph glyph-name="hungarumlaut" unicode="&#x2dd;" horiz-adv-x="500" 
d="M157 587l72 170h77l-108 -170h-41zM283 587l82 170h76l-117 -170h-41z" />
    <glyph glyph-name="ogonek" unicode="&#x2db;" horiz-adv-x="500" 
d="M284 0c-44 -40 -67 -75 -67 -109c0 -29 13 -40 47 -40h40v-63h-39c-73 0 -108 25 -108 80c0 48 31 84 91 132h36z" />
    <glyph glyph-name="caron" unicode="&#x2c7;" horiz-adv-x="500" 
d="M110 757h52l88 -119l87 119h52l-96 -170h-87z" />
    <glyph glyph-name="emdash" unicode="&#x2014;" horiz-adv-x="1000" 
d="M0 235v52h1000v-52h-1000z" />
    <glyph glyph-name="AE" unicode="&#xc6;" horiz-adv-x="876" 
d="M190 292h220v363h-55zM-22 0l336 723h497v-68h-324v-242h227v-67h-227v-277h341v-69h-418v225h-250l-104 -225h-78z" />
    <glyph glyph-name="ordfeminine" unicode="&#xaa;" horiz-adv-x="379" 
d="M264 407c-36 -37 -77 -56 -124 -56c-64 0 -108 42 -108 101c0 81 75 121 234 149v27c0 33 -31 57 -78 57c-42 0 -76 -19 -96 -57l-48 24c30 51 79 77 147 77c82 0 131 -39 131 -108v-205c0 -19 3 -37 8 -53v-6h-60zM266 453v101c-122 -23 -180 -51 -180 -103
c0 -32 24 -54 63 -54c35 0 72 19 117 56z" />
    <glyph glyph-name="Lslash" unicode="&#x141;" horiz-adv-x="524" 
d="M108 0v312l-108 -76v70l108 74v343h81v-298l156 110v-71l-156 -107v-288h324v-69h-405z" />
    <glyph glyph-name="Oslash" unicode="&#xd8;" horiz-adv-x="664" 
d="M119 97c-50 74 -73 161 -73 265c0 232 116 373 286 373c64 0 117 -17 159 -52l54 84l55 -35l-61 -98c50 -63 79 -153 79 -272c0 -232 -115 -374 -285 -374c-69 0 -126 20 -169 60l-67 -106l-55 35zM166 164l289 454c-33 32 -74 48 -123 48c-126 0 -205 -109 -205 -304
c0 -72 12 -137 39 -198zM492 569l-291 -455c32 -38 78 -56 137 -56c119 0 199 111 199 309c0 74 -15 139 -45 202z" />
    <glyph glyph-name="OE" unicode="&#x152;" horiz-adv-x="943" 
d="M496 75c-45 -60 -103 -87 -180 -87c-165 0 -270 134 -270 374s104 373 274 373c72 0 127 -25 176 -81v69h400v-68h-324v-242h228v-67h-228v-277h341v-69h-417v75zM496 199v322c0 19 -12 52 -38 82c-37 44 -77 63 -133 63c-123 0 -198 -106 -198 -304s75 -305 197 -305
c56 0 98 21 135 65c26 30 37 62 37 77z" />
    <glyph glyph-name="ordmasculine" unicode="&#xba;" horiz-adv-x="377" 
d="M26 540c0 122 61 189 163 189s164 -67 164 -189c0 -121 -62 -189 -164 -189s-163 68 -163 189zM81 540c0 -96 39 -147 108 -147c68 0 107 51 107 147s-38 146 -107 146s-108 -50 -108 -146z" />
    <glyph glyph-name="ae" unicode="&#xe6;" horiz-adv-x="785" 
d="M339 137v144c-163 -33 -241 -72 -241 -146c0 -47 32 -78 85 -78c46 0 96 27 156 80zM413 309h255c-2 103 -52 161 -126 161c-77 0 -125 -57 -129 -161zM370 93c-60 -68 -123 -101 -201 -101c-85 0 -144 59 -144 144c0 113 102 176 313 209v42c0 51 -38 81 -105 81
c-58 0 -100 -27 -128 -81l-63 34c38 72 102 110 189 110c70 0 123 -23 161 -70c38 49 86 71 148 71c129 0 204 -95 204 -265v-20h-333v-15c0 -114 56 -178 145 -178c64 0 115 33 146 93l53 -33c-42 -86 -108 -123 -209 -123c-84 0 -140 31 -176 102z" />
    <glyph glyph-name="dotlessi" unicode="&#x131;" horiz-adv-x="248" 
d="M87 0v523h74v-523h-74z" />
    <glyph glyph-name="lslash" unicode="&#x142;" horiz-adv-x="255" 
d="M90 0v318l-90 -63v63l90 64v341h74v-303l91 62v-63l-91 -63v-356h-74z" />
    <glyph glyph-name="oslash" unicode="&#xf8;" horiz-adv-x="503" 
d="M36 -24l55 87c-40 52 -58 115 -58 195c0 178 81 274 220 274c44 0 81 -9 113 -29l42 68l51 -32l-48 -76c39 -43 59 -111 59 -205c0 -171 -82 -267 -221 -267c-41 0 -78 10 -113 31l-49 -78zM133 125l199 319c-21 17 -47 25 -79 25c-96 0 -145 -71 -145 -212
c0 -49 7 -92 25 -132zM169 79c25 -18 51 -27 81 -27c97 0 145 73 145 218c0 52 -7 94 -26 130z" />
    <glyph glyph-name="oe" unicode="&#x153;" horiz-adv-x="838" 
d="M428 91c-39 -68 -97 -100 -179 -100c-133 0 -215 98 -215 271c0 174 82 270 218 270c82 0 142 -33 180 -101c37 67 93 100 167 100c127 0 203 -94 203 -263v-22h-333v-15c0 -114 56 -179 145 -179c64 0 116 33 147 93l52 -33c-41 -84 -108 -123 -205 -123
c-87 0 -140 29 -180 102zM108 262c0 -138 52 -210 144 -210c91 0 143 72 143 209c0 138 -51 209 -143 209s-144 -71 -144 -208zM471 307h255c-2 103 -52 162 -126 162c-77 0 -125 -58 -129 -162z" />
    <glyph glyph-name="germandbls" unicode="&#xdf;" horiz-adv-x="529" 
d="M82 0v533c0 121 71 190 186 190c114 0 181 -67 181 -181c0 -78 -35 -131 -92 -144c81 -16 134 -92 134 -204c0 -127 -68 -203 -176 -203c-35 0 -68 9 -100 29l30 58c25 -16 48 -24 70 -24c63 0 100 50 100 140c0 111 -56 164 -173 166v59c89 5 134 45 134 122
c0 74 -43 120 -113 120c-67 0 -107 -45 -107 -127v-534h-74z" />
    <glyph glyph-name="Aacute" unicode="&#xc1;" 
d="M17 0l223 723h122l222 -723h-84l-65 225h-269l-64 -225h-85zM185 292h228l-108 377h-11zM234 790l102 170h87l-137 -170h-52z" />
    <glyph glyph-name="Acircumflex" unicode="&#xc2;" 
d="M17 0l223 723h122l222 -723h-84l-65 225h-269l-64 -225h-85zM185 292h228l-108 377h-11zM161 790l96 170h87l96 -170h-52l-87 118l-88 -118h-52z" />
    <glyph glyph-name="Adieresis" unicode="&#xc4;" 
d="M17 0l223 723h122l222 -723h-84l-65 225h-269l-64 -225h-85zM185 292h228l-108 377h-11zM184 821v91h78v-91h-78zM340 821v91h78v-91h-78z" />
    <glyph glyph-name="Agrave" unicode="&#xc0;" 
d="M17 0l223 723h122l222 -723h-84l-65 225h-269l-64 -225h-85zM185 292h228l-108 377h-11zM368 790h-52l-137 170h87z" />
    <glyph glyph-name="Aring" unicode="&#xc5;" 
d="M500 0l-65 225h-269l-64 -225h-85l223 723c-41 25 -61 59 -61 105c0 68 53 121 121 121s122 -53 122 -121c0 -44 -20 -78 -60 -105l222 -723h-84zM231 828c0 -39 31 -70 70 -70s69 31 69 70s-30 70 -69 70c-40 0 -70 -31 -70 -70zM185 292h228l-108 377h-11z" />
    <glyph glyph-name="Atilde" unicode="&#xc3;" 
d="M17 0l223 723h122l222 -723h-84l-65 225h-269l-64 -225h-85zM185 292h228l-108 377h-11zM443 920c-16 -62 -51 -93 -97 -93c-12 0 -22 2 -32 5l-39 13c-9 3 -18 4 -26 4c-22 0 -37 -9 -47 -31h-43c14 60 48 91 97 91c10 0 20 -2 29 -5l38 -13c10 -3 21 -5 30 -5
c23 0 39 11 47 34h43z" />
    <glyph glyph-name="Ccedilla" unicode="&#xc7;" horiz-adv-x="604" 
d="M579 217c-35 -153 -120 -229 -255 -229c-176 0 -278 133 -278 374c0 238 108 373 272 373c134 0 218 -73 249 -216l-75 -19c-22 109 -82 167 -167 167c-124 0 -198 -107 -198 -308c0 -196 75 -302 200 -302c94 0 159 62 179 176zM211 -206v42c52 -12 92 -17 120 -17
c39 0 59 13 59 40c0 34 -21 48 -68 48c-8 0 -16 0 -25 -1v94h36v-52h11c73 0 110 -30 110 -86c0 -58 -41 -89 -121 -89c-32 0 -72 8 -122 21z" />
    <glyph glyph-name="Eacute" unicode="&#xc9;" horiz-adv-x="571" 
d="M97 0v723h427v-68h-347v-241h246v-68h-246v-277h364v-69h-444zM252 790l102 170h87l-137 -170h-52z" />
    <glyph glyph-name="Ecircumflex" unicode="&#xca;" horiz-adv-x="571" 
d="M97 0v723h427v-68h-347v-241h246v-68h-246v-277h364v-69h-444zM179 790l96 170h87l96 -170h-52l-87 118l-88 -118h-52z" />
    <glyph glyph-name="Edieresis" unicode="&#xcb;" horiz-adv-x="571" 
d="M97 0v723h427v-68h-347v-241h246v-68h-246v-277h364v-69h-444zM202 821v91h78v-91h-78zM358 821v91h78v-91h-78z" />
    <glyph glyph-name="Egrave" unicode="&#xc8;" horiz-adv-x="571" 
d="M97 0v723h427v-68h-347v-241h246v-68h-246v-277h364v-69h-444zM386 790h-52l-137 170h87z" />
    <glyph glyph-name="Eth" unicode="&#xd0;" horiz-adv-x="682" 
d="M101 0v350h-101v58h101v315h171c97 0 169 -12 229 -57c79 -60 125 -166 125 -304c0 -240 -124 -362 -371 -362h-154zM255 656h-76v-248h162v-58h-162v-279h65c92 0 158 9 209 50c60 47 94 130 94 240c0 116 -32 200 -94 248c-54 42 -116 47 -198 47z" />
    <glyph glyph-name="Euro" unicode="&#x20ac;" 
d="M555 203c-31 -144 -105 -215 -227 -215c-139 0 -227 99 -248 285h-80l13 46h63c-1 20 -2 34 -2 42c0 13 1 31 3 53h-77l13 46h68c21 178 110 274 247 274c114 0 184 -64 216 -196l-67 -19c-28 100 -79 150 -152 150c-91 0 -154 -74 -167 -209h277l-13 -46h-269
c-2 -23 -3 -41 -3 -54c0 -8 1 -22 2 -41h241l-14 -46h-223c16 -143 79 -220 172 -220c80 0 137 57 160 166z" />
    <glyph glyph-name="Iacute" unicode="&#xcd;" horiz-adv-x="285" 
d="M102 0v723h81v-723h-81zM76 790l102 170h87l-137 -170h-52z" />
    <glyph glyph-name="Icircumflex" unicode="&#xce;" horiz-adv-x="285" 
d="M102 0v723h81v-723h-81zM3 790l96 170h87l96 -170h-52l-87 118l-88 -118h-52z" />
    <glyph glyph-name="Idieresis" unicode="&#xcf;" horiz-adv-x="285" 
d="M102 0v723h81v-723h-81zM26 821v91h78v-91h-78zM182 821v91h78v-91h-78z" />
    <glyph glyph-name="Igrave" unicode="&#xcc;" horiz-adv-x="285" 
d="M102 0v723h81v-723h-81zM210 790h-52l-137 170h87z" />
    <glyph glyph-name="Ntilde" unicode="&#xd1;" horiz-adv-x="715" 
d="M97 0v723h114l332 -564v564h75v-723h-62l-384 640v-640h-75zM500 920c-16 -62 -51 -93 -97 -93c-12 0 -22 2 -32 5l-39 13c-9 3 -18 4 -26 4c-22 0 -37 -9 -47 -31h-43c14 60 48 91 97 91c10 0 20 -2 29 -5l38 -13c10 -3 21 -5 30 -5c23 0 39 11 47 34h43z" />
    <glyph glyph-name="Oacute" unicode="&#xd3;" horiz-adv-x="664" 
d="M46 362c0 231 115 373 286 373s286 -141 286 -373s-115 -374 -286 -374s-286 143 -286 374zM127 362c0 -195 79 -304 205 -304s205 109 205 304s-79 304 -205 304s-205 -109 -205 -304zM265 790l102 170h87l-137 -170h-52z" />
    <glyph glyph-name="Ocircumflex" unicode="&#xd4;" horiz-adv-x="664" 
d="M46 362c0 231 115 373 286 373s286 -141 286 -373s-115 -374 -286 -374s-286 143 -286 374zM127 362c0 -195 79 -304 205 -304s205 109 205 304s-79 304 -205 304s-205 -109 -205 -304zM192 790l96 170h87l96 -170h-52l-87 118l-88 -118h-52z" />
    <glyph glyph-name="Odieresis" unicode="&#xd6;" horiz-adv-x="664" 
d="M46 362c0 231 115 373 286 373s286 -141 286 -373s-115 -374 -286 -374s-286 143 -286 374zM127 362c0 -195 79 -304 205 -304s205 109 205 304s-79 304 -205 304s-205 -109 -205 -304zM215 821v91h78v-91h-78zM371 821v91h78v-91h-78z" />
    <glyph glyph-name="Ograve" unicode="&#xd2;" horiz-adv-x="664" 
d="M46 362c0 231 115 373 286 373s286 -141 286 -373s-115 -374 -286 -374s-286 143 -286 374zM127 362c0 -195 79 -304 205 -304s205 109 205 304s-79 304 -205 304s-205 -109 -205 -304zM399 790h-52l-137 170h87z" />
    <glyph glyph-name="Otilde" unicode="&#xd5;" horiz-adv-x="664" 
d="M46 362c0 231 115 373 286 373s286 -141 286 -373s-115 -374 -286 -374s-286 143 -286 374zM127 362c0 -195 79 -304 205 -304s205 109 205 304s-79 304 -205 304s-205 -109 -205 -304zM474 920c-16 -62 -51 -93 -97 -93c-12 0 -22 2 -32 5l-39 13c-9 3 -18 4 -26 4
c-22 0 -37 -9 -47 -31h-43c14 60 48 91 97 91c10 0 20 -2 29 -5l38 -13c10 -3 21 -5 30 -5c23 0 39 11 47 34h43z" />
    <glyph glyph-name="Scaron" unicode="&#x160;" horiz-adv-x="560" 
d="M34 181l76 25c26 -93 94 -149 176 -149c93 0 151 51 151 126c0 45 -16 78 -49 100c-47 32 -106 48 -168 72c-112 44 -166 93 -166 187c0 116 83 193 212 193c112 0 192 -62 226 -177l-72 -21c-24 86 -81 131 -162 131c-78 0 -127 -46 -127 -118c0 -35 16 -63 47 -88
c31 -24 85 -40 154 -66c124 -47 182 -96 182 -208c0 -119 -87 -200 -224 -200c-129 0 -216 65 -256 193zM140 960h52l88 -119l87 119h52l-96 -170h-87z" />
    <glyph glyph-name="Thorn" unicode="&#xde;" 
d="M97 0v723h78v-148h132c171 0 253 -61 253 -197c0 -129 -84 -203 -230 -203h-155v-175h-78zM175 243h123c126 0 180 34 180 136c0 97 -59 129 -186 129h-117v-265z" />
    <glyph glyph-name="Uacute" unicode="&#xda;" horiz-adv-x="711" 
d="M95 723h79v-466c0 -45 1 -83 19 -118c26 -51 84 -82 162 -82c79 0 137 31 163 82c19 38 19 80 19 131v453h79v-479c0 -168 -91 -256 -261 -256c-171 0 -260 87 -260 256v479zM295 790l102 170h87l-137 -170h-52z" />
    <glyph glyph-name="Ucircumflex" unicode="&#xdb;" horiz-adv-x="711" 
d="M95 723h79v-466c0 -45 1 -83 19 -118c26 -51 84 -82 162 -82c79 0 137 31 163 82c19 38 19 80 19 131v453h79v-479c0 -168 -91 -256 -261 -256c-171 0 -260 87 -260 256v479zM222 790l96 170h87l96 -170h-52l-87 118l-88 -118h-52z" />
    <glyph glyph-name="Udieresis" unicode="&#xdc;" horiz-adv-x="711" 
d="M95 723h79v-466c0 -45 1 -83 19 -118c26 -51 84 -82 162 -82c79 0 137 31 163 82c19 38 19 80 19 131v453h79v-479c0 -168 -91 -256 -261 -256c-171 0 -260 87 -260 256v479zM245 821v91h78v-91h-78zM401 821v91h78v-91h-78z" />
    <glyph glyph-name="Ugrave" unicode="&#xd9;" horiz-adv-x="711" 
d="M95 723h79v-466c0 -45 1 -83 19 -118c26 -51 84 -82 162 -82c79 0 137 31 163 82c19 38 19 80 19 131v453h79v-479c0 -168 -91 -256 -261 -256c-171 0 -260 87 -260 256v479zM429 790h-52l-137 170h87z" />
    <glyph glyph-name="Yacute" unicode="&#xdd;" horiz-adv-x="549" 
d="M235 0v305l-220 418h87l172 -334l173 334h87l-220 -418v-305h-79zM208 790l102 170h87l-137 -170h-52z" />
    <glyph glyph-name="Ydieresis" unicode="&#x178;" horiz-adv-x="549" 
d="M235 0v305l-220 418h87l172 -334l173 334h87l-220 -418v-305h-79zM158 821v91h78v-91h-78zM314 821v91h78v-91h-78z" />
    <glyph glyph-name="Zcaron" unicode="&#x17d;" horiz-adv-x="546" 
d="M39 0v53l366 603h-331v67h426v-51l-366 -603h363v-69h-458zM133 960h52l88 -119l87 119h52l-96 -170h-87z" />
    <glyph glyph-name="aacute" unicode="&#xe1;" horiz-adv-x="505" 
d="M352 71c-48 -52 -103 -79 -166 -79c-85 0 -144 59 -144 144c0 115 100 172 313 213v38c0 47 -42 82 -105 82c-56 0 -101 -28 -128 -82l-63 34c39 74 105 111 195 111c110 0 175 -56 175 -155v-292c0 -28 4 -54 11 -77v-8h-80zM355 137v144c-163 -33 -241 -72 -241 -146
c0 -47 32 -78 85 -78c46 0 96 27 156 80zM186 587l102 170h87l-137 -170h-52z" />
    <glyph glyph-name="acircumflex" unicode="&#xe2;" horiz-adv-x="505" 
d="M352 71c-48 -52 -103 -79 -166 -79c-85 0 -144 59 -144 144c0 115 100 172 313 213v38c0 47 -42 82 -105 82c-56 0 -101 -28 -128 -82l-63 34c39 74 105 111 195 111c110 0 175 -56 175 -155v-292c0 -28 4 -54 11 -77v-8h-80zM355 137v144c-163 -33 -241 -72 -241 -146
c0 -47 32 -78 85 -78c46 0 96 27 156 80zM113 587l96 170h87l96 -170h-52l-87 118l-88 -118h-52z" />
    <glyph glyph-name="adieresis" unicode="&#xe4;" horiz-adv-x="505" 
d="M352 71c-48 -52 -103 -79 -166 -79c-85 0 -144 59 -144 144c0 115 100 172 313 213v38c0 47 -42 82 -105 82c-56 0 -101 -28 -128 -82l-63 34c39 74 105 111 195 111c110 0 175 -56 175 -155v-292c0 -28 4 -54 11 -77v-8h-80zM355 137v144c-163 -33 -241 -72 -241 -146
c0 -47 32 -78 85 -78c46 0 96 27 156 80zM136 618v91h78v-91h-78zM292 618v91h78v-91h-78z" />
    <glyph glyph-name="agrave" unicode="&#xe0;" horiz-adv-x="505" 
d="M352 71c-48 -52 -103 -79 -166 -79c-85 0 -144 59 -144 144c0 115 100 172 313 213v38c0 47 -42 82 -105 82c-56 0 -101 -28 -128 -82l-63 34c39 74 105 111 195 111c110 0 175 -56 175 -155v-292c0 -28 4 -54 11 -77v-8h-80zM355 137v144c-163 -33 -241 -72 -241 -146
c0 -47 32 -78 85 -78c46 0 96 27 156 80zM320 587h-52l-137 170h87z" />
    <glyph glyph-name="aring" unicode="&#xe5;" horiz-adv-x="505" 
d="M352 71c-48 -52 -103 -79 -166 -79c-85 0 -144 59 -144 144c0 115 100 172 313 213v38c0 47 -42 82 -105 82c-56 0 -101 -28 -128 -82l-63 34c39 74 105 111 195 111c110 0 175 -56 175 -155v-292c0 -28 4 -54 11 -77v-8h-80zM198 698c0 -39 31 -70 70 -70s69 31 69 70
s-30 70 -69 70c-40 0 -70 -31 -70 -70zM355 137v144c-163 -33 -241 -72 -241 -146c0 -47 32 -78 85 -78c46 0 96 27 156 80zM147 698c0 68 53 121 121 121s121 -53 121 -121s-53 -121 -121 -121s-121 53 -121 121z" />
    <glyph glyph-name="atilde" unicode="&#xe3;" horiz-adv-x="505" 
d="M352 71c-48 -52 -103 -79 -166 -79c-85 0 -144 59 -144 144c0 115 100 172 313 213v38c0 47 -42 82 -105 82c-56 0 -101 -28 -128 -82l-63 34c39 74 105 111 195 111c110 0 175 -56 175 -155v-292c0 -28 4 -54 11 -77v-8h-80zM355 137v144c-163 -33 -241 -72 -241 -146
c0 -47 32 -78 85 -78c46 0 96 27 156 80zM395 717c-16 -62 -51 -93 -97 -93c-12 0 -22 2 -32 5l-39 13c-9 3 -18 4 -26 4c-22 0 -37 -9 -47 -31h-43c14 60 48 91 97 91c10 0 20 -2 29 -5l38 -13c10 -3 21 -5 30 -5c23 0 39 11 47 34h43z" />
    <glyph glyph-name="brokenbar" unicode="&#xa6;" horiz-adv-x="500" 
d="M281 699v-370h-62v370h62zM281 199v-370h-62v370h62z" />
    <glyph glyph-name="ccedilla" unicode="&#xe7;" horiz-adv-x="469" 
d="M446 126c-43 -91 -109 -135 -199 -135c-136 0 -210 94 -210 271c0 172 80 271 210 271c90 0 158 -51 189 -141l-72 -23c-21 66 -65 101 -119 101c-85 0 -134 -71 -134 -208c0 -139 48 -209 138 -209c54 0 104 36 136 105zM131 -206v42c52 -12 92 -17 120 -17
c39 0 59 13 59 40c0 34 -21 48 -68 48c-8 0 -16 0 -25 -1v94h36v-52h11c73 0 110 -30 110 -86c0 -58 -41 -89 -121 -89c-32 0 -72 8 -122 21z" />
    <glyph glyph-name="copyright" unicode="&#xa9;" horiz-adv-x="833" 
d="M416 713c97 0 187 -36 256 -105c67 -67 103 -157 103 -254c0 -98 -36 -186 -103 -252c-71 -69 -162 -107 -256 -107c-95 0 -183 37 -252 106s-106 158 -106 253s38 185 107 255c66 67 154 104 251 104zM733 354c0 85 -33 165 -92 224c-60 60 -139 92 -225 92
s-163 -32 -221 -91c-61 -62 -94 -142 -94 -225s33 -161 93 -222c60 -60 138 -93 222 -93c83 0 164 33 226 94c59 58 91 135 91 221zM520 445c-10 51 -49 80 -102 80c-75 0 -121 -61 -121 -172c0 -107 48 -168 121 -168c56 0 97 33 107 89h63c-7 -83 -77 -140 -173 -140
c-113 0 -188 83 -188 218c0 138 78 223 193 223c90 0 156 -54 163 -130h-63z" />
    <glyph glyph-name="degree" unicode="&#xb0;" horiz-adv-x="329" 
d="M165 710c76 0 138 -62 138 -138c0 -75 -61 -138 -139 -138c-77 0 -137 61 -137 138c0 78 62 138 138 138zM263 572c0 54 -43 98 -98 98c-54 0 -99 -43 -99 -98c0 -56 45 -99 99 -99c56 0 98 45 98 99z" />
    <glyph glyph-name="divide" unicode="&#xf7;" horiz-adv-x="833" 
d="M417 530c31 0 56 -25 56 -56c0 -30 -24 -56 -56 -56s-56 25 -56 56s26 56 56 56zM709 327v-57h-585v57h585zM417 178c30 0 56 -25 56 -56c0 -30 -24 -56 -56 -56c-31 0 -56 25 -56 56c0 32 26 56 56 56z" />
    <glyph glyph-name="eacute" unicode="&#xe9;" horiz-adv-x="481" 
d="M404 147l53 -33c-41 -84 -109 -123 -209 -123c-135 0 -210 93 -210 271c0 172 80 270 204 270c127 0 204 -94 204 -263v-22h-333v-17c0 -111 58 -177 142 -177c65 0 118 33 149 94zM114 309h255c-2 103 -52 161 -126 161c-77 0 -125 -57 -129 -161zM182 587l102 170h87
l-137 -170h-52z" />
    <glyph glyph-name="ecircumflex" unicode="&#xea;" horiz-adv-x="481" 
d="M404 147l53 -33c-41 -84 -109 -123 -209 -123c-135 0 -210 93 -210 271c0 172 80 270 204 270c127 0 204 -94 204 -263v-22h-333v-17c0 -111 58 -177 142 -177c65 0 118 33 149 94zM114 309h255c-2 103 -52 161 -126 161c-77 0 -125 -57 -129 -161zM109 587l96 170h87
l96 -170h-52l-87 118l-88 -118h-52z" />
    <glyph glyph-name="edieresis" unicode="&#xeb;" horiz-adv-x="481" 
d="M404 147l53 -33c-41 -84 -109 -123 -209 -123c-135 0 -210 93 -210 271c0 172 80 270 204 270c127 0 204 -94 204 -263v-22h-333v-17c0 -111 58 -177 142 -177c65 0 118 33 149 94zM114 309h255c-2 103 -52 161 -126 161c-77 0 -125 -57 -129 -161zM132 618v91h78v-91
h-78zM288 618v91h78v-91h-78z" />
    <glyph glyph-name="egrave" unicode="&#xe8;" horiz-adv-x="481" 
d="M404 147l53 -33c-41 -84 -109 -123 -209 -123c-135 0 -210 93 -210 271c0 172 80 270 204 270c127 0 204 -94 204 -263v-22h-333v-17c0 -111 58 -177 142 -177c65 0 118 33 149 94zM114 309h255c-2 103 -52 161 -126 161c-77 0 -125 -57 -129 -161zM316 587h-52l-137 170
h87z" />
    <glyph glyph-name="eth" unicode="&#xf0;" horiz-adv-x="503" 
d="M108 247c0 -130 52 -198 144 -198c91 0 143 67 143 198c0 130 -51 198 -143 198s-144 -68 -144 -198zM314 497c-26 36 -55 66 -87 90l-118 -72l-25 37l107 64c-35 24 -73 45 -114 62l22 56c55 -19 106 -45 154 -79l113 68l23 -36l-99 -61c120 -104 180 -230 180 -379
c0 -165 -81 -256 -218 -256s-218 92 -218 256c0 165 81 258 218 258c23 0 43 -3 62 -8z" />
    <glyph glyph-name="iacute" unicode="&#xed;" horiz-adv-x="248" 
d="M87 0v523h74v-523h-74zM57 587l102 170h87l-137 -170h-52z" />
    <glyph glyph-name="icircumflex" unicode="&#xee;" horiz-adv-x="248" 
d="M87 0v523h74v-523h-74zM-16 587l96 170h87l96 -170h-52l-87 118l-88 -118h-52z" />
    <glyph glyph-name="idieresis" unicode="&#xef;" horiz-adv-x="248" 
d="M87 0v523h74v-523h-74zM7 618v91h78v-91h-78zM163 618v91h78v-91h-78z" />
    <glyph glyph-name="igrave" unicode="&#xec;" horiz-adv-x="248" 
d="M87 0v523h74v-523h-74zM191 587h-52l-137 170h87z" />
    <glyph glyph-name="logicalnot" unicode="&#xac;" horiz-adv-x="833" 
d="M709 419v-245h-56v188h-529v57h585z" />
    <glyph glyph-name="minus" unicode="&#x2212;" horiz-adv-x="833" 
d="M709 327v-58h-585v58h585z" />
    <glyph glyph-name="mu" unicode="&#xb5;" horiz-adv-x="551" 
d="M177 522l-62 -291c-5 -22 -7 -44 -7 -67c0 -70 38 -111 106 -111c82 0 135 66 164 200l59 269h76l-79 -368c-7 -31 -11 -53 -11 -66c0 -21 12 -32 35 -32c2 0 8 0 17 1l-13 -61c-17 -4 -33 -5 -45 -5c-46 0 -67 22 -71 72c-26 -45 -78 -72 -141 -72c-56 0 -99 22 -128 67
l-55 -266h-76l154 730h77z" />
    <glyph glyph-name="multiply" unicode="&#xd7;" horiz-adv-x="833" 
d="M419 338l232 233l40 -40l-232 -233l232 -232l-40 -40l-232 232l-233 -232l-39 40l232 232l-232 233l39 40z" />
    <glyph glyph-name="ntilde" unicode="&#xf1;" horiz-adv-x="536" 
d="M82 0v523h67v-79c56 59 110 88 173 88c86 0 136 -52 136 -145v-387h-71v360c0 75 -22 109 -84 109c-52 0 -101 -26 -149 -79v-390h-72zM410 717c-16 -62 -51 -93 -97 -93c-12 0 -22 2 -32 5l-39 13c-9 3 -18 4 -26 4c-22 0 -37 -9 -47 -31h-43c14 60 48 91 97 91
c10 0 20 -2 29 -5l38 -13c10 -3 21 -5 30 -5c23 0 39 11 47 34h43z" />
    <glyph glyph-name="oacute" unicode="&#xf3;" horiz-adv-x="503" 
d="M34 262c0 174 82 270 218 270s218 -96 218 -270s-82 -271 -218 -271s-218 97 -218 271zM108 262c0 -138 52 -210 144 -210c91 0 143 72 143 209c0 138 -51 209 -143 209s-144 -71 -144 -208zM185 587l102 170h87l-137 -170h-52z" />
    <glyph glyph-name="ocircumflex" unicode="&#xf4;" horiz-adv-x="503" 
d="M34 262c0 174 82 270 218 270s218 -96 218 -270s-82 -271 -218 -271s-218 97 -218 271zM108 262c0 -138 52 -210 144 -210c91 0 143 72 143 209c0 138 -51 209 -143 209s-144 -71 -144 -208zM112 587l96 170h87l96 -170h-52l-87 118l-88 -118h-52z" />
    <glyph glyph-name="odieresis" unicode="&#xf6;" horiz-adv-x="503" 
d="M34 262c0 174 82 270 218 270s218 -96 218 -270s-82 -271 -218 -271s-218 97 -218 271zM108 262c0 -138 52 -210 144 -210c91 0 143 72 143 209c0 138 -51 209 -143 209s-144 -71 -144 -208zM135 618v91h78v-91h-78zM291 618v91h78v-91h-78z" />
    <glyph glyph-name="ograve" unicode="&#xf2;" horiz-adv-x="503" 
d="M34 262c0 174 82 270 218 270s218 -96 218 -270s-82 -271 -218 -271s-218 97 -218 271zM108 262c0 -138 52 -210 144 -210c91 0 143 72 143 209c0 138 -51 209 -143 209s-144 -71 -144 -208zM319 587h-52l-137 170h87z" />
    <glyph glyph-name="onehalf" unicode="&#xbd;" horiz-adv-x="925" 
d="M214 729v-375h75v-36h-197v36h77v327l-84 -8v28c37 9 68 19 92 28h37zM212 -12l445 746h55l-447 -746h-53zM577 0v38c21 42 55 78 101 114c36 29 76 48 102 73c27 25 42 49 42 75c0 47 -33 76 -87 76c-55 0 -94 -31 -107 -87l-44 8c18 75 70 114 152 114
c83 0 134 -43 134 -109c0 -28 -7 -51 -23 -71c-29 -36 -74 -62 -122 -94c-51 -35 -85 -68 -101 -99h247v-38h-294z" />
    <glyph glyph-name="onequarter" unicode="&#xbc;" horiz-adv-x="925" 
d="M214 729v-375h75v-36h-197v36h77v327l-84 -8v28c37 9 68 19 92 28h37zM212 -12l445 746h55l-447 -746h-53zM777 130v237l-155 -237h155zM821 404v-274h75v-34h-75v-103h-44v103h-205v28l184 280h65z" />
    <glyph glyph-name="onesuperior" unicode="&#xb9;" horiz-adv-x="397" 
d="M225 729v-401h78v-39h-206v39h81v350l-88 -9v30c39 10 71 20 97 30h38z" />
    <glyph glyph-name="otilde" unicode="&#xf5;" horiz-adv-x="503" 
d="M34 262c0 174 82 270 218 270s218 -96 218 -270s-82 -271 -218 -271s-218 97 -218 271zM108 262c0 -138 52 -210 144 -210c91 0 143 72 143 209c0 138 -51 209 -143 209s-144 -71 -144 -208zM394 717c-16 -62 -51 -93 -97 -93c-12 0 -22 2 -32 5l-39 13c-9 3 -18 4 -26 4
c-22 0 -37 -9 -47 -31h-43c14 60 48 91 97 91c10 0 20 -2 29 -5l38 -13c10 -3 21 -5 30 -5c23 0 39 11 47 34h43z" />
    <glyph glyph-name="plusminus" unicode="&#xb1;" horiz-adv-x="833" 
d="M446 576v-168h263v-57h-263v-168h-58v168h-264v57h264v168h58zM709 77v-57h-585v57h585z" />
    <glyph glyph-name="registered" unicode="&#xae;" horiz-adv-x="833" 
d="M416 713c98 0 187 -37 256 -106c67 -67 103 -157 103 -253c0 -98 -36 -186 -104 -252c-71 -69 -161 -107 -255 -107c-95 0 -184 38 -253 107c-68 68 -105 157 -105 252s38 186 108 256c66 67 153 103 250 103zM733 352c0 86 -32 166 -91 225c-61 61 -139 93 -226 93
c-85 0 -162 -31 -220 -90c-62 -62 -95 -142 -95 -226c0 -83 33 -161 93 -222s139 -93 221 -93c85 0 164 32 226 93c59 58 92 135 92 220zM426 565c114 0 171 -36 171 -113c0 -57 -36 -99 -96 -109l92 -188h-77l-86 178h-87v-178h-69v410h152zM413 520h-70v-142h72
c76 0 111 17 111 69c0 53 -36 73 -113 73z" />
    <glyph glyph-name="scaron" unicode="&#x161;" horiz-adv-x="435" 
d="M19 90l58 46c41 -56 90 -84 149 -84c64 0 105 35 105 88c0 70 -59 75 -161 106c-89 27 -132 74 -132 143c0 85 65 143 158 143c77 0 138 -28 188 -87l-48 -48c-39 50 -84 75 -136 75c-54 0 -88 -30 -88 -76c0 -22 9 -42 26 -54c35 -25 84 -31 139 -49
c87 -28 127 -72 127 -145c0 -93 -71 -157 -187 -157c-82 0 -155 36 -198 99zM78 757h52l88 -119l87 119h52l-96 -170h-87z" />
    <glyph glyph-name="thorn" unicode="&#xfe;" horiz-adv-x="541" 
d="M82 -190v913h74v-259c34 46 77 68 134 68c137 0 217 -97 217 -273c0 -174 -78 -268 -218 -268c-59 0 -102 21 -135 65v-246h-72zM154 131c39 -55 82 -80 140 -80c87 0 138 71 138 207c0 139 -51 212 -141 212c-59 0 -102 -24 -137 -78v-261z" />
    <glyph glyph-name="threequarters" unicode="&#xbe;" horiz-adv-x="926" 
d="M21 392l39 24c29 -45 70 -68 121 -68c63 0 101 30 101 81c0 57 -44 87 -131 87c-6 0 -17 0 -35 -1v38c14 0 25 -1 34 -1c78 0 119 28 119 77c0 40 -32 64 -84 64c-44 0 -76 -18 -106 -56l-36 24c38 46 84 68 143 68c81 0 131 -39 131 -98c0 -45 -24 -77 -70 -95
c55 -19 84 -54 84 -103c0 -74 -56 -122 -148 -122c-72 0 -127 28 -162 81zM212 -12l445 746h55l-447 -746h-53zM777 130v237l-155 -237h155zM821 404v-274h75v-34h-75v-103h-44v103h-205v28l184 280h65z" />
    <glyph glyph-name="threesuperior" unicode="&#xb3;" horiz-adv-x="397" 
d="M22 368l41 26c30 -49 73 -73 126 -73c67 0 107 32 107 87c0 61 -47 93 -138 93c-6 0 -18 0 -37 -1v41c15 -1 27 -1 36 -1c82 0 125 29 125 83c0 42 -34 68 -89 68c-45 0 -79 -19 -110 -60l-37 26c38 48 87 72 149 72c85 0 137 -42 137 -105c0 -48 -25 -82 -73 -101
c58 -20 88 -59 88 -111c0 -79 -59 -130 -156 -130c-75 0 -132 29 -169 86z" />
    <glyph glyph-name="trademark" unicode="&#x2122;" horiz-adv-x="833" 
d="M339 711v-33h-84v-228h-46v228h-85v33h215zM463 711l78 -198l73 198h64v-261h-40v224l-84 -224h-26l-88 224v-224h-40v261h63z" />
    <glyph glyph-name="twosuperior" unicode="&#xb2;" horiz-adv-x="397" 
d="M33 289v41c22 45 57 84 105 122c38 31 80 52 107 78c29 27 44 52 44 81c0 50 -35 81 -91 81c-58 0 -98 -33 -112 -93l-46 9c19 79 74 121 159 121c87 0 141 -45 141 -117c0 -30 -8 -54 -25 -76c-30 -38 -77 -66 -128 -101c-53 -36 -89 -72 -105 -106h259v-40h-308z" />
    <glyph glyph-name="uacute" unicode="&#xfa;" horiz-adv-x="536" 
d="M453 523v-523h-66v79c-56 -59 -111 -88 -174 -88c-86 0 -136 52 -136 145v387h72v-360c0 -75 22 -109 84 -109c52 0 100 26 148 79v390h72zM201 587l102 170h87l-137 -170h-52z" />
    <glyph glyph-name="ucircumflex" unicode="&#xfb;" horiz-adv-x="536" 
d="M453 523v-523h-66v79c-56 -59 -111 -88 -174 -88c-86 0 -136 52 -136 145v387h72v-360c0 -75 22 -109 84 -109c52 0 100 26 148 79v390h72zM128 587l96 170h87l96 -170h-52l-87 118l-88 -118h-52z" />
    <glyph glyph-name="udieresis" unicode="&#xfc;" horiz-adv-x="536" 
d="M453 523v-523h-66v79c-56 -59 -111 -88 -174 -88c-86 0 -136 52 -136 145v387h72v-360c0 -75 22 -109 84 -109c52 0 100 26 148 79v390h72zM151 618v91h78v-91h-78zM307 618v91h78v-91h-78z" />
    <glyph glyph-name="ugrave" unicode="&#xf9;" horiz-adv-x="536" 
d="M453 523v-523h-66v79c-56 -59 -111 -88 -174 -88c-86 0 -136 52 -136 145v387h72v-360c0 -75 22 -109 84 -109c52 0 100 26 148 79v390h72zM335 587h-52l-137 170h87z" />
    <glyph glyph-name="yacute" unicode="&#xfd;" horiz-adv-x="458" 
d="M198 9l-188 514h74l152 -418l136 418h74l-179 -532c-41 -121 -80 -182 -190 -182c-16 0 -32 2 -46 6v67c18 -4 32 -5 41 -5c73 0 105 37 126 132zM162 587l102 170h87l-137 -170h-52z" />
    <glyph glyph-name="ydieresis" unicode="&#xff;" horiz-adv-x="458" 
d="M198 9l-188 514h74l152 -418l136 418h74l-179 -532c-41 -121 -80 -182 -190 -182c-16 0 -32 2 -46 6v67c18 -4 32 -5 41 -5c73 0 105 37 126 132zM112 618v91h78v-91h-78zM268 618v91h78v-91h-78z" />
    <glyph glyph-name="zcaron" unicode="&#x17e;" horiz-adv-x="435" 
d="M24 0v53l295 408h-266v62h354v-52l-296 -407h294v-64h-381zM78 757h52l88 -119l87 119h52l-96 -170h-87z" />
    </font>
</defs>
</svg>
