<?xml version="1.0" standalone="no"?>
<!DOCTYPE svg PUBLIC "-//W3C//DTD SVG 1.1//EN" "http://www.w3.org/Graphics/SVG/1.1/DTD/svg11.dtd" >
<svg xmlns="http://www.w3.org/2000/svg" xmlns:xlink="http://www.w3.org/1999/xlink" version="1.1">
<metadata>
Created by FontForge 20190801 at Fri May 12 12:07:28 2006
 By root
 The digitally encoded machine readable software for producing the
 Typefaces licensed to you is copyrighted (c) 1989, 1995, 2002 Adobe Systems.
 All Rights Reserved. This software is the property of Adobe Systems
 Incorporated and its licensors, and may not be reproduced, used,
 displayed, modified, disclosed or transferred without the express
 written approval of Adobe.

 The digitally encoded machine readable outline data for producing the Typefaces
 provided as part of your laser printer is copyrighted (c) 1981, 1995, 2002 Heidelberger Druckmaschinen AG.
 All rights reserved. This data is the property of Heidelberger Druckmaschinen AG,
 and may not be reproduced, used, displayed, modified, disclosed or transferred
 without the express written approval of Heidelberger Druckmaschinen AG. 
</metadata>
<defs>
<font id="AvenirLTStd-BlackOblique" horiz-adv-x="296" >
  <font-face 
    font-family="Avenir LT Std"
    font-weight="750"
    font-style="oblique"
    font-stretch="normal"
    units-per-em="1000"
    panose-1="2 11 8 3 2 2 3 2 2 4"
    ascent="756"
    descent="-244"
    x-height="486"
    cap-height="708"
    bbox="-159 -275 1159.81 953"
    underline-thickness="50"
    underline-position="-100"
    slope="-8"
    stemh="120"
    stemv="150"
    unicode-range="U+0020-FB02"
  />
<missing-glyph horiz-adv-x="598" 
d="M98 0v700h500v-700h-500zM348 395l170 255h-340zM378 350l170 -255v510zM178 50h340l-170 255zM148 605v-510l170 255z" />
    <glyph glyph-name="fi" unicode="fi" horiz-adv-x="630" 
d="M425 0l68 486h150l-68 -486h-150zM503 639c7 48 51 87 99 87s82 -39 75 -87s-51 -87 -99 -87s-82 39 -75 87zM105 0l51 366h-99l17 120h99l12 86c15 106 55 196 218 196c30 0 60 -2 87 -9l-25 -127c-16 6 -30 10 -48 10c-48 0 -74 -15 -83 -79l-11 -77h111l-17 -120h-111
l-51 -366h-150z" />
    <glyph glyph-name="fl" unicode="fl" horiz-adv-x="630" 
d="M425 0l106 756h150l-106 -756h-150zM105 0l51 366h-99l17 120h99l12 86c15 106 55 196 218 196c30 0 60 -2 87 -9l-25 -127c-16 6 -30 10 -48 10c-48 0 -74 -15 -83 -79l-11 -77h111l-17 -120h-111l-51 -366h-150z" />
    <glyph glyph-name=".notdef" horiz-adv-x="598" 
d="M98 0v700h500v-700h-500zM348 395l170 255h-340zM378 350l170 -255v510zM178 50h340l-170 255zM148 605v-510l170 255z" />
    <glyph glyph-name="space" unicode=" " 
 />
    <glyph glyph-name="exclam" unicode="!" horiz-adv-x="444" 
d="M397 708l-67 -474h-150l67 474h150zM142 86c7 51 54 92 105 92s86 -41 79 -92s-54 -92 -105 -92s-86 41 -79 92z" />
    <glyph glyph-name="quotedbl" unicode="&#x22;" horiz-adv-x="520" 
d="M373 426l40 282h126l-40 -282h-126zM141 426l40 282h126l-40 -282h-126z" />
    <glyph glyph-name="numbersign" unicode="#" horiz-adv-x="592" 
d="M101 0l56 201h-84l13 90h96l35 126h-84l12 90h96l57 201h97l-57 -201h99l57 201h97l-57 -201h84l-12 -90h-96l-35 -126h84l-13 -90h-96l-56 -201h-97l56 201h-99l-56 -201h-97zM378 291l35 126h-99l-35 -126h99z" />
    <glyph glyph-name="dollar" unicode="$" horiz-adv-x="592" 
d="M439 790l-10 -70c72 0 154 -17 205 -63l-112 -117c-28 28 -69 40 -112 42l-23 -159l93 -28c84 -26 132 -88 119 -181c-20 -140 -140 -213 -273 -226l-10 -70h-66l10 70c-88 0 -178 21 -235 81l122 119c29 -43 79 -58 133 -62l23 169l-69 22c-97 32 -143 86 -129 187
c18 126 138 202 258 216l10 70h66zM324 439l19 140c-38 -8 -75 -26 -81 -68c-9 -60 46 -66 62 -72zM367 278l-21 -150c42 8 89 28 95 74c6 43 -23 56 -56 69z" />
    <glyph glyph-name="percent" unicode="%" horiz-adv-x="907" 
d="M534 187c16 110 116 198 225 198s185 -88 169 -198c-15 -110 -116 -199 -225 -199s-184 89 -169 199zM826 187c8 53 -28 96 -81 96s-101 -43 -109 -96c-7 -54 29 -97 82 -97s101 43 108 97zM78 522c16 110 116 198 225 198s185 -88 169 -198
c-15 -110 -115 -198 -224 -198s-185 88 -170 198zM370 522c8 53 -28 96 -81 96s-101 -43 -109 -96c-7 -53 29 -96 82 -96s101 43 108 96zM212 11l507 729l77 -47l-514 -725z" />
    <glyph glyph-name="ampersand" unicode="&#x26;" horiz-adv-x="759" 
d="M795 365l-177 -198l135 -167h-193l-50 67c-66 -60 -136 -85 -220 -85c-128 0 -241 70 -221 212c13 91 89 165 177 193c-39 50 -65 89 -55 159c18 128 133 180 246 180c109 0 198 -55 182 -174c-12 -84 -81 -147 -157 -184l77 -97l82 94h174zM418 606
c-39 0 -72 -26 -78 -66c-5 -35 25 -67 46 -89c34 18 88 51 93 91c6 41 -23 64 -61 64zM433 166l-106 136c-42 -24 -87 -48 -95 -101c-7 -52 34 -87 83 -87c46 0 81 23 118 52z" />
    <glyph glyph-name="quoteright" unicode="&#x2019;" 
d="M357 708l-130 -282h-128l114 282h144z" />
    <glyph glyph-name="parenleft" unicode="(" horiz-adv-x="314" 
d="M293 732l94 -60c-98 -127 -161 -229 -183 -384c-21 -155 12 -257 76 -384l-112 -60l-1 4c-73 136 -106 276 -83 440c24 164 95 304 206 440z" />
    <glyph glyph-name="parenright" unicode=")" horiz-adv-x="314" 
d="M102 -156l-94 60c98 127 161 229 182 384c22 155 -11 257 -75 384l112 60l1 -4c73 -136 106 -276 82 -440c-23 -164 -94 -304 -205 -440z" />
    <glyph glyph-name="asterisk" unicode="*" horiz-adv-x="482" 
d="M393 708l-20 -138l137 43l17 -95l-137 -42l67 -114l-92 -61l-68 115l-96 -110l-72 61l99 109l-127 46l46 95l124 -47l20 138h102z" />
    <glyph glyph-name="plus" unicode="+" horiz-adv-x="666" 
d="M93 240l17 126h211l30 211h126l-30 -211h211l-17 -126h-211l-30 -211h-126l30 211h-211z" />
    <glyph glyph-name="comma" unicode="," 
d="M0 -120l114 282h144l-130 -282h-128z" />
    <glyph glyph-name="hyphen" unicode="-" 
d="M314 309l-16 -120h-246l16 120h246z" />
    <glyph glyph-name="period" unicode="." 
d="M68 86c7 51 54 92 105 92s86 -41 79 -92s-54 -92 -105 -92s-86 41 -79 92z" />
    <glyph glyph-name="slash" unicode="/" horiz-adv-x="407" 
d="M-6 -18l409 779l109 -35l-409 -779z" />
    <glyph glyph-name="zero" unicode="0" horiz-adv-x="592" 
d="M83 354c23 168 104 366 314 366s235 -198 212 -366c-24 -168 -105 -366 -315 -366s-235 198 -211 366zM233 354c-11 -74 -27 -228 81 -228s134 154 145 228c10 74 27 228 -81 228s-135 -154 -145 -228z" />
    <glyph glyph-name="one" unicode="1" horiz-adv-x="592" 
d="M288 0l76 540l-160 -125l-71 98l259 195h140l-100 -708h-144z" />
    <glyph glyph-name="two" unicode="2" horiz-adv-x="592" 
d="M49 0l22 159l310 247c32 26 71 56 77 99c7 48 -30 77 -76 77c-55 0 -94 -39 -105 -90l-148 11c29 146 141 217 280 217c129 0 219 -71 199 -213c-13 -91 -59 -143 -119 -190l-241 -185h314l-19 -132h-494z" />
    <glyph glyph-name="three" unicode="3" horiz-adv-x="592" 
d="M258 299l18 130h49c55 0 116 12 125 79c6 43 -28 74 -77 74c-47 0 -83 -29 -97 -66l-161 34c49 123 156 170 276 170c126 0 231 -61 212 -197c-11 -78 -63 -139 -143 -155l-1 -3c84 -11 122 -83 110 -165c-20 -142 -146 -212 -285 -212c-126 0 -217 56 -228 183l163 37
c3 -50 30 -82 94 -82c65 0 101 38 108 91c12 80 -61 82 -128 82h-35z" />
    <glyph glyph-name="four" unicode="4" horiz-adv-x="592" 
d="M333 0l20 142h-309l18 126l351 440h164l-62 -440h91l-18 -126h-91l-20 -142h-144zM371 268l34 244h-2l-191 -244h159z" />
    <glyph glyph-name="five" unicode="5" horiz-adv-x="592" 
d="M617 708l-19 -132h-281l-18 -109c17 6 37 8 64 8c143 0 232 -89 212 -234c-23 -160 -151 -253 -306 -253c-122 0 -199 61 -213 181l162 36c1 -51 33 -85 85 -85c64 0 111 45 120 106c13 93 -69 117 -147 117c-49 0 -101 -10 -150 -26l63 391h428z" />
    <glyph glyph-name="six" unicode="6" horiz-adv-x="592" 
d="M553 708l-202 -253c17 4 33 7 50 7c133 0 208 -102 189 -231c-20 -146 -150 -243 -298 -243s-250 97 -230 243c15 102 64 164 118 235l190 242h183zM441 237c9 64 -31 111 -98 111s-121 -47 -130 -111s32 -111 99 -111s120 47 129 111z" />
    <glyph glyph-name="seven" unicode="7" horiz-adv-x="592" 
d="M97 0l370 570h-350l20 138h518l-19 -132l-364 -576h-175z" />
    <glyph glyph-name="eight" unicode="8" horiz-adv-x="592" 
d="M133 525c18 130 134 195 264 195s228 -65 210 -195c-11 -77 -63 -135 -142 -157l-1 -2c82 -23 121 -84 108 -172c-19 -137 -147 -206 -278 -206s-239 69 -220 206c13 88 68 149 156 172l1 2c-73 22 -109 80 -98 157zM280 504c-6 -44 24 -79 76 -79s92 35 98 79
c6 43 -24 78 -76 78s-92 -35 -98 -78zM227 215c-7 -49 28 -89 87 -89s104 40 111 89c7 50 -27 90 -86 90s-105 -40 -112 -90z" />
    <glyph glyph-name="nine" unicode="9" horiz-adv-x="592" 
d="M139 0l202 253c-17 -4 -33 -7 -50 -7c-133 0 -208 102 -190 231c21 146 150 243 298 243s251 -97 230 -243c-14 -102 -63 -164 -118 -235l-189 -242h-183zM250 471c-9 -64 32 -111 99 -111s120 47 129 111s-31 111 -98 111s-121 -47 -130 -111z" />
    <glyph glyph-name="colon" unicode=":" 
d="M68 86c7 51 54 92 105 92s86 -41 79 -92s-54 -92 -105 -92s-86 41 -79 92zM113 406c7 51 54 92 105 92s86 -41 79 -92s-54 -92 -105 -92s-86 41 -79 92z" />
    <glyph glyph-name="semicolon" unicode=";" 
d="M0 -120l114 282h144l-130 -282h-128zM113 406c7 51 54 92 105 92s86 -41 79 -92s-54 -92 -105 -92s-86 41 -79 92z" />
    <glyph glyph-name="less" unicode="&#x3c;" horiz-adv-x="666" 
d="M665 564l-19 -136l-334 -124l-1 -2l300 -124l-19 -136l-478 198l17 126z" />
    <glyph glyph-name="equal" unicode="=" horiz-adv-x="666" 
d="M106 336l18 126h548l-18 -126h-548zM79 144l18 126h548l-18 -126h-548z" />
    <glyph glyph-name="greater" unicode="&#x3e;" horiz-adv-x="666" 
d="M86 42l19 136l334 124l1 2l-300 124l19 136l478 -198l-17 -126z" />
    <glyph glyph-name="question" unicode="?" horiz-adv-x="556" 
d="M249 234l6 44c6 40 19 66 48 90c84 71 142 104 149 150c6 44 -21 70 -62 70c-62 0 -101 -40 -112 -89l-152 10c33 141 141 217 280 217c122 0 215 -68 197 -197c-10 -76 -46 -122 -151 -197c-35 -24 -46 -47 -49 -69l-4 -29h-150zM211 86c7 51 54 92 105 92
s86 -41 79 -92s-54 -92 -105 -92s-86 41 -79 92z" />
    <glyph glyph-name="at" unicode="@" horiz-adv-x="800" 
d="M526 364c8 53 -11 92 -61 92c-61 0 -108 -55 -117 -124c-6 -42 0 -89 56 -89c84 0 114 66 122 121zM680 534l-65 -197c-6 -19 -15 -47 -18 -66c-2 -15 2 -28 23 -28c42 0 92 45 107 149c23 160 -75 244 -227 244c-166 0 -293 -119 -316 -283c-25 -175 85 -281 254 -281
c75 0 143 22 198 61h110c-85 -98 -207 -151 -329 -151c-213 0 -366 154 -335 371c30 213 223 373 434 373c176 0 338 -117 308 -329c-30 -213 -196 -244 -256 -244c-56 0 -75 28 -72 54h-2c-30 -27 -72 -54 -135 -54c-86 0 -135 69 -121 168c17 117 108 225 232 225
c53 0 85 -16 100 -57h2l14 45h94z" />
    <glyph glyph-name="A" unicode="A" horiz-adv-x="741" 
d="M-1 0l406 708h129l208 -708h-176l-40 150h-275l-80 -150h-172zM492 282l-56 220l-117 -220h173z" />
    <glyph glyph-name="B" unicode="B" horiz-adv-x="648" 
d="M72 0l100 708h264c124 0 255 -26 233 -180c-11 -79 -67 -133 -144 -156v-2c91 -12 144 -81 131 -173c-21 -148 -168 -197 -294 -197h-290zM309 576l-21 -151h113c48 0 101 20 109 77c8 59 -46 74 -95 74h-106zM269 293l-22 -161h140c49 0 107 21 115 83
c10 67 -64 78 -115 78h-118z" />
    <glyph glyph-name="C" unicode="C" horiz-adv-x="685" 
d="M742 622l-133 -98c-26 37 -68 58 -126 58c-118 0 -219 -96 -237 -228c-19 -132 55 -228 168 -228c63 0 118 28 156 76l117 -97c-71 -84 -177 -123 -274 -123c-221 0 -361 145 -329 372s213 372 434 372c79 0 175 -27 224 -104z" />
    <glyph glyph-name="D" unicode="D" horiz-adv-x="759" 
d="M72 0l100 708h234c228 0 405 -97 368 -356c-32 -229 -236 -352 -447 -352h-255zM307 564l-59 -420h81c145 0 262 55 285 216c19 139 -83 204 -215 204h-92z" />
    <glyph glyph-name="E" unicode="E" horiz-adv-x="630" 
d="M78 0l100 708h481l-21 -144h-325l-18 -132h307l-21 -144h-307l-20 -144h343l-20 -144h-499z" />
    <glyph glyph-name="F" unicode="F" horiz-adv-x="593" 
d="M78 0l100 708h475l-21 -144h-319l-20 -144h295l-20 -144h-295l-39 -276h-156z" />
    <glyph glyph-name="G" unicode="G" horiz-adv-x="778" 
d="M772 420l-52 -370c-99 -48 -203 -68 -307 -68c-221 0 -361 145 -329 372s213 372 434 372c112 0 208 -25 269 -91l-127 -120c-35 44 -83 67 -162 67c-133 0 -234 -96 -252 -228c-19 -132 55 -228 188 -228c68 0 120 19 152 35l16 115h-127l20 144h277z" />
    <glyph glyph-name="H" unicode="H" horiz-adv-x="759" 
d="M72 0l100 708h156l-38 -264h303l38 264h156l-100 -708h-156l43 306h-303l-43 -306h-156z" />
    <glyph glyph-name="I" unicode="I" 
d="M70 0l100 708h156l-100 -708h-156z" />
    <glyph glyph-name="J" unicode="J" horiz-adv-x="500" 
d="M538 708l-67 -471c-18 -131 -70 -255 -262 -255c-112 0 -186 52 -193 165l148 35c-1 -34 27 -62 61 -62c73 0 85 81 93 134l64 454h156z" />
    <glyph glyph-name="K" unicode="K" horiz-adv-x="722" 
d="M78 0l100 708h156l-42 -294l317 294h204l-362 -329l289 -379h-218l-241 336l-47 -336h-156z" />
    <glyph glyph-name="L" unicode="L" horiz-adv-x="537" 
d="M78 0l100 708h156l-80 -564h289l-20 -144h-445z" />
    <glyph glyph-name="M" unicode="M" horiz-adv-x="944" 
d="M72 0l100 708h236l98 -462h2l229 462h235l-100 -708h-156l76 543h-2l-262 -543h-119l-103 543h-2l-76 -543h-156z" />
    <glyph glyph-name="N" unicode="N" horiz-adv-x="815" 
d="M72 0l100 708h212l231 -492h2l70 492h156l-100 -708h-204l-238 504h-2l-71 -504h-156z" />
    <glyph glyph-name="O" unicode="O" horiz-adv-x="832" 
d="M84 354c32 227 213 372 434 372s362 -145 330 -372s-214 -372 -435 -372s-361 145 -329 372zM246 354c-19 -132 55 -228 188 -228s233 96 252 228c18 132 -55 228 -188 228s-234 -96 -252 -228z" />
    <glyph glyph-name="P" unicode="P" horiz-adv-x="630" 
d="M72 0l100 708h263c147 0 262 -47 238 -215c-23 -166 -143 -217 -292 -217h-114l-39 -276h-156zM309 576l-24 -168h104c55 0 113 19 122 85c11 73 -62 83 -122 83h-80z" />
    <glyph glyph-name="Q" unicode="Q" horiz-adv-x="852" 
d="M864 120l-17 -120h-429c-221 0 -365 135 -333 363c30 214 219 363 429 363s357 -150 327 -363c-14 -100 -72 -198 -175 -241v-2h198zM247 363c-17 -122 66 -219 185 -219s230 97 247 219s-66 219 -185 219s-230 -97 -247 -219z" />
    <glyph glyph-name="R" unicode="R" horiz-adv-x="648" 
d="M72 0l100 708h274c145 0 259 -50 236 -215c-14 -99 -77 -176 -180 -194l138 -299h-187l-108 283h-77l-40 -283h-156zM309 576l-23 -161h92c57 0 132 2 142 79c10 71 -52 82 -109 82h-102z" />
    <glyph glyph-name="S" unicode="S" horiz-adv-x="574" 
d="M621 652l-124 -117c-20 32 -68 47 -106 47c-44 0 -108 -20 -115 -73c-19 -129 319 -46 284 -294c-22 -158 -160 -233 -306 -233c-91 0 -167 27 -225 89l128 122c26 -42 75 -67 127 -67c51 0 111 24 118 74c18 130 -323 60 -290 296c21 151 163 230 302 230
c80 0 154 -21 207 -74z" />
    <glyph glyph-name="T" unicode="T" horiz-adv-x="574" 
d="M209 0l80 570h-202l20 138h560l-20 -138h-202l-80 -570h-156z" />
    <glyph glyph-name="U" unicode="U" horiz-adv-x="741" 
d="M769 708l-62 -435c-23 -167 -143 -291 -339 -291c-197 0 -281 124 -258 291l62 435h156l-61 -429c-12 -87 39 -153 122 -153c82 0 151 66 163 153l61 429h156z" />
    <glyph glyph-name="V" unicode="V" horiz-adv-x="704" 
d="M285 0l-183 708h178l109 -464h2l244 464h167l-392 -708h-125z" />
    <glyph glyph-name="W" unicode="W" horiz-adv-x="1000" 
d="M208 0l-110 708h170l49 -454h2l212 454h145l81 -466h2l185 466h158l-307 -708h-139l-87 490h-2l-225 -490h-134z" />
    <glyph glyph-name="X" unicode="X" horiz-adv-x="722" 
d="M0 0l300 370l-186 338h196l116 -248l180 248h189l-277 -335l204 -373h-196l-133 285l-208 -285h-185z" />
    <glyph glyph-name="Y" unicode="Y" horiz-adv-x="648" 
d="M246 0l42 302l-208 406h194l112 -265l197 265h185l-324 -406l-42 -302h-156z" />
    <glyph glyph-name="Z" unicode="Z" horiz-adv-x="630" 
d="M35 0l20 144l419 426h-346l20 138h535l-20 -138l-412 -426h364l-20 -144h-560z" />
    <glyph glyph-name="bracketleft" unicode="[" 
d="M379 732l-13 -90h-90l-99 -708h90l-13 -90h-210l125 888h210z" />
    <glyph glyph-name="backslash" unicode="\" horiz-adv-x="407" 
d="M407 -18l-117 -35l-191 779l119 35z" />
    <glyph glyph-name="bracketright" unicode="]" 
d="M-2 -156l13 90h90l99 708h-90l13 90h210l-125 -888h-210z" />
    <glyph glyph-name="asciicircum" unicode="^" horiz-adv-x="666" 
d="M128 343l232 365h146l128 -365h-142l-77 238l-146 -238h-141z" />
    <glyph glyph-name="underscore" unicode="_" horiz-adv-x="500" 
d="M482 -125h-500l7 50h500z" />
    <glyph glyph-name="quoteleft" unicode="&#x2018;" 
d="M99 426l130 282h128l-114 -282h-144z" />
    <glyph glyph-name="a" unicode="a" horiz-adv-x="537" 
d="M358 0l9 61h-2c-41 -52 -104 -73 -165 -73c-91 0 -165 52 -152 150c24 168 228 171 353 171c8 53 -31 87 -83 87c-49 0 -93 -22 -130 -58l-69 82c62 52 146 78 225 78c175 0 209 -89 187 -251l-35 -247h-138zM388 213h-37c-46 0 -149 -4 -158 -70c-5 -36 31 -53 64 -53
c59 0 118 31 126 91z" />
    <glyph glyph-name="b" unicode="b" horiz-adv-x="630" 
d="M67 0l106 756h150l-45 -322h2c41 47 101 64 163 64c138 0 205 -124 186 -259c-21 -147 -131 -251 -275 -251c-68 0 -120 41 -138 76h-2l-9 -64h-138zM239 243c-10 -73 28 -123 103 -123s127 50 137 123s-28 123 -103 123s-127 -50 -137 -123z" />
    <glyph glyph-name="c" unicode="c" horiz-adv-x="482" 
d="M542 433l-114 -104c-12 21 -38 37 -69 37c-75 0 -127 -50 -137 -123s28 -123 103 -123c33 0 59 17 79 37l84 -104c-53 -48 -125 -65 -182 -65c-150 0 -256 100 -234 255s156 255 306 255c57 0 124 -17 164 -65z" />
    <glyph glyph-name="d" unicode="d" horiz-adv-x="630" 
d="M669 756l-106 -756h-138l9 64h-2c-28 -35 -92 -76 -160 -76c-144 0 -224 104 -203 251c19 135 120 259 258 259c62 0 118 -17 145 -64h2l45 322h150zM459 243c10 73 -28 123 -103 123s-127 -50 -137 -123s28 -123 103 -123s127 50 137 123z" />
    <glyph glyph-name="e" unicode="e" horiz-adv-x="574" 
d="M431 161l94 -77c-57 -61 -141 -96 -219 -96c-150 0 -256 100 -234 255s156 255 306 255c140 0 214 -100 192 -255l-6 -47h-348c4 -57 41 -94 99 -94c49 0 86 25 116 59zM230 298h198c8 50 -25 92 -79 92c-66 0 -109 -45 -119 -92z" />
    <glyph glyph-name="f" unicode="f" horiz-adv-x="370" 
d="M105 0l51 366h-99l17 120h99l12 86c15 106 55 196 218 196c30 0 60 -2 87 -9l-25 -127c-16 6 -30 10 -48 10c-48 0 -74 -15 -83 -79l-11 -77h111l-17 -120h-111l-51 -366h-150z" />
    <glyph glyph-name="g" unicode="g" horiz-adv-x="630" 
d="M631 486l-62 -445c-26 -183 -133 -281 -321 -281c-86 0 -172 15 -234 71l101 124c40 -39 88 -63 149 -63c91 0 141 50 151 119l6 47h-2c-40 -47 -101 -64 -146 -64c-144 0 -224 104 -204 251c19 129 120 253 258 253c85 0 137 -41 155 -76h2l9 64h138zM220 246
c-9 -63 35 -120 103 -120s128 57 137 120c8 63 -36 120 -104 120s-128 -57 -136 -120z" />
    <glyph glyph-name="h" unicode="h" horiz-adv-x="574" 
d="M159 756h150l-47 -336h2c19 38 74 78 147 78c152 0 166 -100 148 -230l-38 -268h-150l33 238c8 56 17 128 -60 128c-78 0 -98 -61 -107 -124l-34 -242h-150z" />
    <glyph glyph-name="i" unicode="i" horiz-adv-x="260" 
d="M55 0l68 486h150l-68 -486h-150zM133 639c7 48 51 87 99 87s82 -39 75 -87s-51 -87 -99 -87s-82 39 -75 87z" />
    <glyph glyph-name="j" unicode="j" horiz-adv-x="260" 
d="M273 486l-73 -522c-17 -124 -72 -204 -209 -204c-23 0 -48 1 -69 8l27 133c11 -6 25 -9 38 -9c52 0 61 61 67 98l69 496h150zM133 639c7 48 51 87 99 87s82 -39 75 -87s-51 -87 -99 -87s-82 39 -75 87z" />
    <glyph glyph-name="k" unicode="k" horiz-adv-x="556" 
d="M53 0l106 756h150l-65 -462l193 192h184l-223 -219l160 -267h-189l-129 246h-2l-35 -246h-150z" />
    <glyph glyph-name="l" unicode="l" horiz-adv-x="260" 
d="M55 0l106 756h150l-106 -756h-150z" />
    <glyph glyph-name="m" unicode="m" horiz-adv-x="870" 
d="M53 0l68 486h144l-9 -66h2c25 38 80 78 153 78c68 0 120 -28 138 -87c43 62 94 87 166 87c132 0 159 -93 142 -211l-40 -287h-150l40 283c6 45 -6 83 -55 83c-69 0 -97 -49 -106 -109l-36 -257h-150l36 257c5 36 17 109 -52 109c-78 0 -98 -61 -107 -124l-34 -242h-150z
" />
    <glyph glyph-name="n" unicode="n" horiz-adv-x="574" 
d="M53 0l68 486h144l-9 -66h2c25 38 80 78 153 78c152 0 166 -100 148 -230l-38 -268h-150l33 238c8 56 17 128 -60 128c-78 0 -98 -61 -107 -124l-34 -242h-150z" />
    <glyph glyph-name="o" unicode="o" horiz-adv-x="610" 
d="M69 243c22 155 156 255 306 255s256 -100 234 -255s-156 -255 -306 -255s-256 100 -234 255zM219 243c-10 -73 28 -123 103 -123s127 50 137 123s-28 123 -103 123s-127 -50 -137 -123z" />
    <glyph glyph-name="p" unicode="p" horiz-adv-x="630" 
d="M35 -228l100 714h138l-9 -64h2c28 35 92 76 160 76c144 0 224 -104 204 -251c-19 -135 -121 -259 -259 -259c-62 0 -117 17 -145 64h-2l-39 -280h-150zM239 243c-10 -73 28 -123 103 -123s127 50 137 123s-28 123 -103 123s-127 -50 -137 -123z" />
    <glyph glyph-name="q" unicode="q" horiz-adv-x="630" 
d="M631 486l-100 -714h-150l39 280h-2c-40 -47 -101 -64 -163 -64c-138 0 -204 124 -185 259c20 147 130 251 274 251c68 0 120 -41 138 -76h2l9 64h138zM459 243c10 73 -28 123 -103 123s-127 -50 -137 -123s28 -123 103 -123s127 50 137 123z" />
    <glyph glyph-name="r" unicode="r" horiz-adv-x="407" 
d="M53 0l68 486h150l-11 -78h2c41 59 87 90 153 90c17 0 36 -1 49 -5l-19 -137c-20 6 -41 10 -63 10c-114 0 -137 -66 -150 -163l-29 -203h-150z" />
    <glyph glyph-name="s" unicode="s" horiz-adv-x="463" 
d="M481 434l-105 -91c-18 27 -45 41 -81 41c-25 0 -57 -11 -61 -40c-10 -72 252 -11 226 -196c-18 -124 -143 -160 -247 -160c-68 0 -140 17 -181 66l105 101c23 -34 53 -53 98 -53c34 0 70 9 73 35c11 78 -251 12 -225 197c16 114 125 164 227 164c64 0 133 -16 171 -64z
" />
    <glyph glyph-name="t" unicode="t" horiz-adv-x="407" 
d="M452 486l-17 -120h-132l-22 -162c-8 -52 -7 -90 58 -90c16 0 48 2 63 14l-18 -125c-34 -12 -72 -15 -107 -15c-100 0 -171 41 -156 147l32 231h-96l17 120h96l21 144h150l-21 -144h132z" />
    <glyph glyph-name="u" unicode="u" horiz-adv-x="574" 
d="M589 486l-68 -486h-144l9 66h-2c-25 -38 -80 -78 -153 -78c-152 0 -166 100 -147 230l37 268h150l-33 -238c-8 -56 -17 -128 60 -128c78 0 98 61 107 124l34 242h150z" />
    <glyph glyph-name="v" unicode="v" horiz-adv-x="556" 
d="M203 0l-133 486h162l77 -330h2l160 330h151l-260 -486h-159z" />
    <glyph glyph-name="w" unicode="w" horiz-adv-x="833" 
d="M173 0l-110 486h160l56 -305h2l126 305h164l47 -305h2l134 305h152l-241 -486h-148l-56 323h-2l-135 -323h-151z" />
    <glyph glyph-name="x" unicode="x" horiz-adv-x="556" 
d="M-8 0l229 260l-131 226h177l68 -132l101 132h167l-189 -226l150 -260h-177l-83 162l-137 -162h-175z" />
    <glyph glyph-name="y" unicode="y" horiz-adv-x="556" 
d="M621 486l-299 -565c-55 -103 -86 -161 -229 -161c-38 0 -75 6 -109 18l37 123c22 -10 43 -15 68 -15c68 0 83 29 112 82l14 28l-144 490h162l80 -321h2l152 321h154z" />
    <glyph glyph-name="z" unicode="z" horiz-adv-x="500" 
d="M34 0l21 150l282 216h-246l17 120h420l-20 -144l-295 -222h270l-17 -120h-432z" />
    <glyph glyph-name="braceleft" unicode="{" horiz-adv-x="370" 
d="M350 -42l-16 -114h-105c-71 0 -123 42 -108 146l24 172c8 62 -74 69 -99 69l16 114c25 0 109 7 118 69l25 173c14 104 75 145 149 145h105l-16 -114h-49c-61 0 -70 -37 -74 -64l-23 -161c-14 -93 -72 -100 -114 -104l-1 -2c42 -3 98 -10 86 -103l-23 -162
c-4 -27 -5 -64 56 -64h49z" />
    <glyph glyph-name="bar" unicode="|" horiz-adv-x="417" 
d="M204 825h110v-1100h-110v1100z" />
    <glyph glyph-name="braceright" unicode="}" horiz-adv-x="370" 
d="M101 618l16 114h108c68 0 120 -42 105 -146l-24 -172c-9 -62 70 -69 98 -69l-16 -114c-28 0 -109 -7 -117 -69l-25 -173c-14 -104 -75 -145 -149 -145h-105l16 114h49c61 0 70 37 74 64l23 161c14 93 72 100 114 104l1 2c-42 3 -98 10 -86 103l23 162c4 27 5 64 -56 64
h-49z" />
    <glyph glyph-name="asciitilde" unicode="~" horiz-adv-x="666" 
d="M584 400l21 -108c-28 -42 -70 -86 -137 -86c-34 0 -71 15 -107 32c-34 16 -69 36 -96 36c-40 0 -71 -37 -98 -68l-21 108c28 42 70 86 137 86c34 0 71 -15 107 -32c34 -16 70 -36 97 -36c40 0 70 37 97 68z" />
    <glyph glyph-name="exclamdown" unicode="&#xa1;" horiz-adv-x="444" 
d="M116 -222l66 474h150l-66 -474h-150zM370 400c-7 -51 -54 -92 -105 -92s-86 41 -79 92s54 92 105 92s86 -41 79 -92z" />
    <glyph glyph-name="cent" unicode="&#xa2;" horiz-adv-x="592" 
d="M299 -81l9 69c-141 8 -217 117 -198 255c20 142 126 238 270 255l9 66h60l-9 -66c68 0 117 -18 163 -62l-110 -102c-22 27 -48 38 -71 38l-36 -258c15 0 41 2 89 43l76 -107c-57 -49 -137 -62 -183 -62l-9 -69h-60zM326 114l36 258c-63 -12 -99 -66 -108 -128
c-8 -61 13 -111 72 -130z" />
    <glyph glyph-name="sterling" unicode="&#xa3;" horiz-adv-x="592" 
d="M48 0l16 114h96l28 198h-96l14 102h96l10 71c17 119 119 235 281 235c75 0 152 -18 200 -68l-115 -107c-24 27 -58 43 -85 43c-89 0 -125 -63 -134 -125l-7 -49h156l-14 -102h-156l-28 -198h253l-16 -114h-499z" />
    <glyph glyph-name="fraction" unicode="&#x2044;" horiz-adv-x="167" 
d="M-159 11l507 729l77 -47l-514 -725z" />
    <glyph glyph-name="yen" unicode="&#xa5;" horiz-adv-x="592" 
d="M218 0l22 158h-169l14 96h169l6 48l-9 20h-157l14 96h100l-144 290h182l112 -264l188 264h182l-226 -290h100l-14 -96h-157l-15 -20l-6 -48h169l-14 -96h-169l-22 -158h-156z" />
    <glyph glyph-name="florin" unicode="&#x192;" horiz-adv-x="592" 
d="M557 434l-14 -102h-146l-99 -292c-38 -109 -102 -179 -227 -179c-37 0 -75 9 -107 24l69 119c12 -8 28 -11 44 -11c42 0 65 26 88 95l85 244h-114l14 102h134l31 91c50 148 102 195 225 195c47 0 86 -10 126 -30l-69 -113c-15 7 -32 11 -50 11c-48 0 -71 -25 -91 -83
l-25 -71h126z" />
    <glyph glyph-name="section" unicode="&#xa7;" horiz-adv-x="592" 
d="M604 617l-136 -72c-9 38 -44 61 -84 61c-32 0 -67 -17 -72 -53c-14 -98 299 -90 273 -272c-7 -55 -50 -106 -102 -130c31 -28 45 -73 38 -119c-18 -131 -163 -183 -271 -183c-99 0 -184 30 -216 126l137 63c6 -48 55 -69 100 -69c32 0 81 11 87 52
c13 94 -290 79 -263 272c10 67 48 114 108 148c-35 26 -54 67 -47 115c17 117 139 170 239 170c85 0 180 -25 209 -109zM306 239l95 -47c24 13 39 35 43 61c5 38 -27 59 -55 72l-109 55c-24 -13 -39 -33 -43 -59c-7 -48 34 -65 69 -82z" />
    <glyph glyph-name="currency" unicode="&#xa4;" horiz-adv-x="592" 
d="M58 153l55 49c-25 43 -35 95 -27 152s33 109 70 152l-42 49l68 59l43 -48c46 30 100 48 157 48s107 -18 145 -48l55 48l52 -59l-56 -49c26 -44 36 -95 28 -152s-32 -108 -71 -152l43 -49l-69 -59l-42 48c-46 -30 -101 -48 -158 -48s-106 18 -144 48l-56 -48zM218 354
c-11 -75 38 -134 109 -134s136 59 147 134c10 75 -38 134 -109 134s-137 -59 -147 -134z" />
    <glyph glyph-name="quotesingle" unicode="'" 
d="M145 426l40 282h126l-40 -282h-126z" />
    <glyph glyph-name="quotedblleft" unicode="&#x201c;" horiz-adv-x="520" 
d="M104 426l130 282h128l-114 -282h-144zM318 426l130 282h128l-114 -282h-144z" />
    <glyph glyph-name="guillemotleft" unicode="&#xab;" horiz-adv-x="538" 
d="M327 422l-140 -173l92 -173l-100 -61l-126 234l192 234zM569 422l-140 -173l92 -173l-100 -61l-126 234l192 234z" />
    <glyph glyph-name="guilsinglleft" unicode="&#x2039;" 
d="M327 422l-140 -173l92 -173l-100 -61l-126 234l192 234z" />
    <glyph glyph-name="guilsinglright" unicode="&#x203a;" 
d="M39 76l140 173l-92 173l100 61l126 -234l-192 -234z" />
    <glyph glyph-name="endash" unicode="&#x2013;" horiz-adv-x="500" 
d="M27 189l16 120h500l-16 -120h-500z" />
    <glyph glyph-name="dagger" unicode="&#x2020;" horiz-adv-x="592" 
d="M205 -133l71 505h-190l18 126h190l30 210h138l-30 -210h196l-18 -126h-196l-71 -505h-138z" />
    <glyph glyph-name="daggerdbl" unicode="&#x2021;" horiz-adv-x="592" 
d="M208 -133l26 180h-193l16 120h193l34 241h-193l17 120h193l26 180h138l-26 -180h193l-17 -120h-193l-34 -241h193l-16 -120h-193l-26 -180h-138z" />
    <glyph glyph-name="periodcentered" unicode="&#xb7;" 
d="M96 283c7 51 54 92 105 92s86 -41 79 -92s-54 -92 -105 -92s-86 41 -79 92z" />
    <glyph glyph-name="paragraph" unicode="&#xb6;" horiz-adv-x="620" 
d="M217 -133l69 492c-145 0 -214 64 -199 171c21 144 133 178 272 178h302l-119 -841h-108l105 745h-109l-105 -745h-108z" />
    <glyph glyph-name="bullet" unicode="&#x2022;" horiz-adv-x="500" 
d="M123 354c14 98 104 177 202 177s166 -79 152 -177s-104 -177 -202 -177s-166 79 -152 177z" />
    <glyph glyph-name="quotesinglbase" unicode="&#x201a;" 
d="M279 156l-130 -282h-128l114 282h144z" />
    <glyph glyph-name="quotedblbase" unicode="&#x201e;" horiz-adv-x="520" 
d="M498 156l-130 -282h-128l114 282h144zM284 156l-130 -282h-128l114 282h144z" />
    <glyph glyph-name="quotedblright" unicode="&#x201d;" horiz-adv-x="520" 
d="M576 708l-130 -282h-128l114 282h144zM362 708l-130 -282h-128l114 282h144z" />
    <glyph glyph-name="guillemotright" unicode="&#xbb;" horiz-adv-x="538" 
d="M281 76l140 173l-92 173l100 61l126 -234l-192 -234zM39 76l140 173l-92 173l100 61l126 -234l-192 -234z" />
    <glyph glyph-name="ellipsis" unicode="&#x2026;" horiz-adv-x="1000" 
d="M87 86c7 51 54 92 105 92s86 -41 79 -92s-54 -92 -105 -92s-86 41 -79 92zM420 86c7 51 54 92 105 92s86 -41 79 -92s-54 -92 -105 -92s-86 41 -79 92zM753 86c7 51 54 92 105 92s86 -41 79 -92s-54 -92 -105 -92s-86 41 -79 92z" />
    <glyph glyph-name="perthousand" unicode="&#x2030;" horiz-adv-x="1167" 
d="M418 165c14 97 103 176 201 176c97 0 165 -79 151 -176c-13 -97 -104 -177 -201 -177c-98 0 -164 80 -151 177zM514 165c-6 -44 25 -81 69 -81s85 37 91 81s-25 80 -69 80s-85 -36 -91 -80zM805 165c14 97 104 176 201 176s166 -79 152 -176c-13 -97 -105 -177 -202 -177
s-164 80 -151 177zM901 165c-6 -44 25 -81 69 -81s86 37 92 81s-26 80 -70 80s-85 -36 -91 -80zM108 544c14 97 103 176 201 176c97 0 166 -79 152 -176c-13 -97 -104 -177 -201 -177c-98 0 -165 80 -152 177zM204 544c-6 -44 25 -81 69 -81s86 37 92 81c7 44 -25 80 -69 80
s-85 -36 -92 -80zM149 11l507 729l77 -47l-514 -725z" />
    <glyph glyph-name="questiondown" unicode="&#xbf;" horiz-adv-x="556" 
d="M375 252l-6 -44c-5 -40 -19 -66 -47 -90c-84 -71 -143 -104 -149 -150c-7 -44 21 -70 62 -70c62 0 100 40 111 89l153 -10c-34 -141 -142 -217 -281 -217c-122 0 -215 68 -197 197c11 76 46 122 152 197c34 24 45 47 48 69l4 29h150zM413 400c-7 -51 -54 -92 -105 -92
s-86 41 -79 92s54 92 105 92s86 -41 79 -92z" />
    <glyph glyph-name="grave" unicode="`" horiz-adv-x="260" 
d="M231 708l80 -144h-132l-152 144h204z" />
    <glyph glyph-name="acute" unicode="&#xb4;" horiz-adv-x="260" 
d="M109 564l122 144h204l-194 -144h-132z" />
    <glyph glyph-name="circumflex" unicode="&#x2c6;" horiz-adv-x="260" 
d="M408 564h-138l-52 78l-73 -78h-135l140 144h163z" />
    <glyph glyph-name="tilde" unicode="&#x2dc;" horiz-adv-x="260" 
d="M93 570h-79c21 67 72 138 147 138c33 0 56 -9 84 -21c17 -7 33 -15 53 -15c23 0 38 16 50 36h78c-24 -76 -66 -138 -150 -138c-29 0 -53 11 -75 21c-21 11 -40 21 -60 21c-23 0 -39 -23 -48 -42z" />
    <glyph glyph-name="macron" unicode="&#xaf;" horiz-adv-x="260" 
d="M397 687l-14 -96h-340l14 96h340z" />
    <glyph glyph-name="breve" unicode="&#x2d8;" horiz-adv-x="260" 
d="M46 708h80c2 -19 15 -31 33 -39c19 -7 42 -9 64 -9c52 0 90 4 112 48h79c-26 -102 -110 -144 -205 -144s-172 39 -163 144z" />
    <glyph glyph-name="dotaccent" unicode="&#x2d9;" horiz-adv-x="260" 
d="M207 558c-47 0 -77 40 -70 86c6 43 48 82 92 82c46 0 82 -34 76 -82c-7 -48 -49 -86 -98 -86z" />
    <glyph glyph-name="dieresis" unicode="&#xa8;" horiz-adv-x="260" 
d="M103 558c-47 0 -77 40 -70 86c6 43 48 82 92 82c46 0 82 -34 76 -82c-7 -48 -49 -86 -98 -86zM311 558c-47 0 -77 40 -70 86c6 43 48 82 92 82c46 0 82 -34 76 -82c-7 -48 -49 -86 -98 -86z" />
    <glyph glyph-name="ring" unicode="&#x2da;" horiz-adv-x="260" 
d="M207 545c-61 0 -104 50 -96 111c9 61 66 111 127 111s104 -50 95 -111c-8 -61 -65 -111 -126 -111zM171 656c-4 -28 16 -51 44 -51s54 23 58 51s-16 51 -44 51s-54 -23 -58 -51z" />
    <glyph glyph-name="cedilla" unicode="&#xb8;" horiz-adv-x="260" 
d="M168 0l-49 -60c59 0 124 -9 114 -83c-10 -73 -102 -97 -153 -97c-40 0 -88 13 -121 30l32 47c15 -6 41 -17 75 -17c31 0 67 6 70 32c4 24 -25 34 -45 34c-13 0 -24 -3 -37 -8l-28 29l75 93h67z" />
    <glyph glyph-name="hungarumlaut" unicode="&#x2dd;" horiz-adv-x="260" 
d="M-23 564l122 144h204l-194 -144h-132zM241 564l122 144h204l-194 -144h-132z" />
    <glyph glyph-name="ogonek" unicode="&#x2db;" horiz-adv-x="260" 
d="M157 -145l20 -53c-36 -25 -72 -42 -115 -42c-55 0 -100 34 -92 93c8 58 79 125 128 159h68c-37 -28 -96 -89 -102 -134c-3 -22 11 -46 35 -46c19 0 42 11 58 23z" />
    <glyph glyph-name="caron" unicode="&#x2c7;" horiz-adv-x="260" 
d="M27 708h138l52 -78l73 78h135l-140 -144h-163z" />
    <glyph glyph-name="emdash" unicode="&#x2014;" horiz-adv-x="1000" 
d="M27 189l16 120h1000l-16 -120h-1000z" />
    <glyph glyph-name="AE" unicode="&#xc6;" horiz-adv-x="1037" 
d="M534 0l21 150h-263l-116 -150h-191l549 708h538l-21 -144h-282l-18 -132h258l-21 -144h-258l-20 -144h294l-20 -144h-450zM574 282l39 282h-17l-218 -282h196z" />
    <glyph glyph-name="ordfeminine" unicode="&#xaa;" horiz-adv-x="349" 
d="M291 431l5 37h-2c-19 -31 -59 -43 -99 -43c-59 0 -108 31 -100 89c14 101 147 105 222 105c3 24 -15 47 -49 47c-32 0 -61 -15 -84 -36l-46 49c41 31 95 47 146 47c114 0 136 -54 123 -147l-20 -148h-96zM312 540l3 19h-18c-29 0 -94 -3 -99 -41c-3 -22 18 -27 39 -27
c39 0 72 26 75 49z" />
    <glyph glyph-name="Lslash" unicode="&#x141;" horiz-adv-x="537" 
d="M78 0l22 160l-67 -52l19 132l67 52l59 416h156l-40 -281l236 185l-18 -130l-236 -184l-22 -154h289l-20 -144h-445z" />
    <glyph glyph-name="Oslash" unicode="&#xd8;" horiz-adv-x="832" 
d="M34 -3l107 102c-50 64 -72 151 -57 255c32 227 213 372 434 372c87 0 161 -22 218 -64l106 100l48 -49l-104 -98c53 -64 77 -153 62 -261c-32 -227 -214 -372 -435 -372c-91 0 -168 25 -223 68l-107 -101zM265 217l351 331c-31 22 -71 34 -118 34
c-133 0 -234 -96 -252 -228c-8 -52 0 -99 19 -137zM662 497l-352 -333c31 -24 73 -38 124 -38c133 0 233 96 252 228c8 56 -1 106 -24 143z" />
    <glyph glyph-name="OE" unicode="&#x152;" horiz-adv-x="1018" 
d="M744 564l-18 -132h264l-21 -144h-264l-20 -144h300l-20 -144h-531c-190 0 -385 106 -350 354c32 230 223 354 442 354h527l-21 -144h-288zM529 144l59 420h-51c-154 0 -272 -70 -291 -210c-20 -140 78 -210 232 -210h51z" />
    <glyph glyph-name="ordmasculine" unicode="&#xba;" horiz-adv-x="397" 
d="M104 575c13 91 98 151 196 151s168 -60 155 -151c-14 -95 -99 -150 -197 -150s-168 55 -154 150zM206 575c-4 -36 19 -66 64 -66s78 30 83 66c5 37 -20 67 -65 67s-77 -30 -82 -67z" />
    <glyph glyph-name="ae" unicode="&#xe6;" horiz-adv-x="852" 
d="M188 338l-69 82c62 52 146 78 225 78c57 0 113 -18 150 -59c45 39 108 59 171 59c140 0 214 -100 192 -255l-6 -47h-348c4 -57 41 -94 99 -94c49 0 86 25 116 59l94 -77c-57 -61 -141 -96 -219 -96c-79 0 -149 19 -183 79c-50 -58 -125 -79 -210 -79
c-91 0 -165 52 -152 150c22 156 216 160 325 160h18c8 58 -19 98 -73 98c-49 0 -93 -22 -130 -58zM193 139c-7 -44 37 -49 70 -49c71 0 105 42 114 106h-18c-46 0 -158 0 -166 -57zM517 298h198c8 50 -25 92 -79 92c-66 0 -109 -45 -119 -92z" />
    <glyph glyph-name="dotlessi" unicode="&#x131;" horiz-adv-x="260" 
d="M55 0l68 486h150l-68 -486h-150z" />
    <glyph glyph-name="lslash" unicode="&#x142;" horiz-adv-x="260" 
d="M55 0l35 248l-69 -61l18 129l69 61l53 379h150l-32 -229l69 61l-18 -129l-69 -61l-56 -398h-150z" />
    <glyph glyph-name="oslash" unicode="&#xf8;" horiz-adv-x="610" 
d="M27 6l80 70c-32 42 -47 99 -38 167c22 155 156 255 306 255c63 0 117 -18 158 -49l77 67l40 -45l-75 -66c30 -42 43 -98 34 -162c-22 -155 -156 -255 -306 -255c-59 0 -111 16 -152 46l-83 -73zM225 180l194 170c-15 10 -37 16 -63 16c-75 0 -127 -50 -137 -123
c-3 -24 -1 -45 6 -63zM455 300l-190 -166c16 -9 35 -14 57 -14c75 0 127 50 137 123c3 21 2 40 -4 57z" />
    <glyph glyph-name="oe" unicode="&#x153;" horiz-adv-x="944" 
d="M801 161l94 -77c-57 -61 -141 -96 -219 -96c-83 0 -141 19 -180 69c-57 -52 -125 -69 -192 -69c-151 0 -257 100 -235 255s156 255 307 255c71 0 131 -24 172 -73c49 45 113 73 200 73c140 0 214 -100 192 -255l-6 -47h-348c4 -57 41 -94 99 -94c49 0 86 25 116 59z
M357 366c-76 0 -128 -50 -138 -123s28 -123 104 -123c75 0 127 50 137 123s-28 123 -103 123zM600 298h198c8 50 -25 92 -79 92c-66 0 -109 -45 -119 -92z" />
    <glyph glyph-name="germandbls" unicode="&#xdf;" horiz-adv-x="630" 
d="M53 0l72 513c24 169 120 255 292 255c113 0 223 -56 205 -183c-11 -77 -49 -131 -124 -160l-1 -2c103 -21 142 -103 127 -206c-19 -142 -132 -229 -270 -229c-32 0 -61 4 -91 12l17 122c15 -5 31 -8 48 -8c74 0 143 37 154 117c12 85 -40 122 -119 122h-20l17 126h12
c50 0 95 27 102 79c7 50 -33 78 -80 78c-61 0 -107 -38 -115 -98l-76 -538h-150z" />
    <glyph glyph-name="onesuperior" unicode="&#xb9;" horiz-adv-x="385" 
d="M224 289l44 317l-99 -75l-49 66l175 117h96l-59 -425h-108z" />
    <glyph glyph-name="logicalnot" unicode="&#xac;" horiz-adv-x="666" 
d="M501 142l27 194h-422l18 126h548l-45 -320h-126z" />
    <glyph glyph-name="mu" unicode="&#xb5;" horiz-adv-x="574" 
d="M589 486l-68 -486h-144l9 66h-2c-25 -38 -80 -78 -153 -78c-11 0 -21 1 -29 3l-31 -219h-150l100 714h150l-33 -238c-8 -56 -17 -128 60 -128c78 0 98 61 107 124l34 242h150z" />
    <glyph glyph-name="trademark" unicode="&#x2122;" horiz-adv-x="1000" 
d="M201 296l44 316h-119l14 96h346l-14 -96h-119l-44 -316h-108zM516 296l58 412h145l60 -268l136 268h145l-58 -412h-108l37 268h-2l-135 -268h-70l-61 268h-2l-37 -268h-108z" />
    <glyph glyph-name="Eth" unicode="&#xd0;" horiz-adv-x="759" 
d="M307 564l-20 -144h198l-14 -102h-198l-25 -174h81c145 0 262 55 285 216c19 139 -83 204 -215 204h-92zM72 0l45 318h-60l14 102h60l41 288h234c228 0 405 -97 368 -356c-32 -229 -236 -352 -447 -352h-255z" />
    <glyph glyph-name="onehalf" unicode="&#xbd;" horiz-adv-x="889" 
d="M196 289l44 317l-99 -75l-49 66l175 117h96l-59 -425h-108zM544 0l13 89l208 158c21 16 48 35 50 55c4 28 -22 39 -53 39c-38 0 -67 -24 -74 -54l-101 6c21 95 97 138 193 138c93 0 156 -43 145 -120c-10 -69 -35 -87 -78 -117l-155 -108v-2h201l-12 -84h-337zM191 11
l507 729l77 -47l-514 -725z" />
    <glyph glyph-name="plusminus" unicode="&#xb1;" horiz-adv-x="666" 
d="M104 323l18 126h211l18 128h126l-18 -128h211l-18 -126h-211l-18 -128h-126l18 128h-211zM63 29l18 126h548l-18 -126h-548z" />
    <glyph glyph-name="Thorn" unicode="&#xde;" horiz-adv-x="630" 
d="M72 0l100 708h156l-18 -126h107c147 0 262 -47 239 -215c-24 -166 -144 -217 -293 -217h-114l-21 -150h-156zM291 450l-23 -168h104c55 0 112 19 122 85c10 73 -63 83 -123 83h-80z" />
    <glyph glyph-name="onequarter" unicode="&#xbc;" horiz-adv-x="889" 
d="M716 0l12 85h-209l11 78l236 262h118l-36 -256h57l-12 -84h-57l-12 -85h-108zM740 169l19 136h-2l-118 -136h101zM196 289l44 317l-99 -75l-49 66l175 117h96l-59 -425h-108zM191 11l507 729l77 -47l-514 -725z" />
    <glyph glyph-name="divide" unicode="&#xf7;" horiz-adv-x="666" 
d="M93 240l17 126h548l-17 -126h-548zM263 114c7 47 51 86 98 86s81 -39 74 -86s-51 -86 -98 -86s-81 39 -74 86zM316 492c7 47 51 86 98 86s81 -39 74 -86c-6 -47 -51 -86 -98 -86s-80 39 -74 86z" />
    <glyph glyph-name="brokenbar" unicode="&#xa6;" horiz-adv-x="417" 
d="M204 743h110v-385h-110v385zM204 192h110v-384h-110v384z" />
    <glyph glyph-name="degree" unicode="&#xb0;" horiz-adv-x="400" 
d="M265 460c49 0 93 39 100 88s-27 88 -76 88s-93 -39 -100 -88s27 -88 76 -88zM253 376c-95 0 -161 77 -148 172s101 172 196 172s161 -77 148 -172s-101 -172 -196 -172z" />
    <glyph glyph-name="thorn" unicode="&#xfe;" horiz-adv-x="630" 
d="M35 -228l138 984h150l-45 -322h2c28 39 91 64 146 64c144 0 224 -104 204 -251c-19 -135 -121 -259 -259 -259c-62 0 -117 17 -145 64h-2l-39 -280h-150zM239 243c-10 -73 28 -123 103 -123s127 50 137 123s-28 123 -103 123s-127 -50 -137 -123z" />
    <glyph glyph-name="threequarters" unicode="&#xbe;" horiz-adv-x="889" 
d="M720 0l12 85h-209l11 78l236 262h118l-36 -256h57l-12 -84h-57l-12 -85h-108zM744 169l19 136h-2l-118 -136h101zM196 468l12 84h34c38 0 75 7 80 45c3 21 -17 33 -51 33c-32 0 -60 -16 -71 -44l-106 20c33 85 107 114 189 114c86 0 159 -37 148 -114
c-6 -47 -41 -84 -96 -93v-2c57 -7 85 -51 78 -100c-12 -86 -99 -128 -194 -128c-87 0 -151 33 -159 118l112 22c3 -31 21 -50 59 -50s70 13 75 48c7 46 -39 47 -85 47h-25zM215 11l507 729l77 -47l-514 -725z" />
    <glyph glyph-name="twosuperior" unicode="&#xb2;" horiz-adv-x="385" 
d="M65 289l12 89l208 158c22 16 48 35 51 55c4 28 -22 39 -53 39c-38 0 -68 -24 -74 -54l-101 6c20 95 96 138 192 138c93 0 156 -43 145 -120c-9 -69 -34 -87 -77 -117l-155 -108l-1 -2h201l-11 -84h-337z" />
    <glyph glyph-name="registered" unicode="&#xae;" horiz-adv-x="800" 
d="M280 163l55 390h138c42 0 166 0 148 -126c-11 -79 -60 -103 -106 -109l78 -155h-105l-68 150h-17l-21 -150h-102zM425 475l-12 -84h41c24 0 60 1 66 42c5 40 -30 42 -54 42h-41zM78 354c29 205 219 372 424 372s349 -167 320 -372s-220 -372 -425 -372s-348 167 -319 372
zM180 354c-22 -155 81 -282 230 -282s288 127 310 282s-82 282 -231 282s-287 -127 -309 -282z" />
    <glyph glyph-name="minus" unicode="&#x2212;" horiz-adv-x="666" 
d="M93 240l17 126h548l-17 -126h-548z" />
    <glyph glyph-name="eth" unicode="&#xf0;" horiz-adv-x="610" 
d="M558 777l68 -67l-130 -51c53 -67 146 -185 119 -375c-26 -181 -137 -298 -312 -296c-150 0 -256 100 -234 255s161 255 284 255c35 0 70 -4 94 -26l3 2c-21 37 -64 100 -93 129l-113 -45l-62 68l114 46c-11 14 -40 43 -60 59l132 70c26 -23 49 -47 69 -72zM219 243
c-10 -73 28 -123 103 -123s127 50 137 123s-28 123 -103 123s-127 -50 -137 -123z" />
    <glyph glyph-name="multiply" unicode="&#xd7;" horiz-adv-x="666" 
d="M131 475l106 95l153 -175l196 174l77 -86l-198 -180l155 -173l-105 -93l-151 176l-202 -177l-77 86l200 181z" />
    <glyph glyph-name="threesuperior" unicode="&#xb3;" horiz-adv-x="385" 
d="M209 468l12 84h34c38 0 75 7 80 45c3 21 -17 33 -51 33c-32 0 -60 -16 -71 -44l-107 20c34 85 108 114 190 114c86 0 159 -37 148 -114c-6 -47 -41 -84 -96 -93v-2c57 -7 85 -51 78 -100c-12 -86 -99 -128 -194 -128c-87 0 -151 33 -159 118l112 22c3 -31 21 -50 59 -50
s70 13 75 48c7 46 -39 47 -85 47h-25z" />
    <glyph glyph-name="copyright" unicode="&#xa9;" horiz-adv-x="800" 
d="M536 300h94c-28 -103 -113 -157 -200 -157c-126 0 -186 94 -169 214c17 123 99 210 227 210c90 0 158 -48 159 -148h-94c-3 43 -34 58 -70 58c-65 0 -103 -46 -114 -118c-10 -74 20 -126 78 -126c42 0 79 18 89 67zM78 354c29 205 219 372 424 372s349 -167 320 -372
s-220 -372 -425 -372s-348 167 -319 372zM180 354c-22 -155 81 -282 230 -282s288 127 310 282s-82 282 -231 282s-287 -127 -309 -282z" />
    <glyph glyph-name="Aacute" unicode="&#xc1;" horiz-adv-x="741" 
d="M-1 0l406 708h129l208 -708h-176l-40 150h-275l-80 -150h-172zM492 282l-56 220l-117 -220h173zM378 759l121 144h204l-193 -144h-132z" />
    <glyph glyph-name="Acircumflex" unicode="&#xc2;" horiz-adv-x="741" 
d="M-1 0l406 708h129l208 -708h-176l-40 150h-275l-80 -150h-172zM492 282l-56 220l-117 -220h173zM677 759h-138l-52 78l-73 -78h-135l139 144h163z" />
    <glyph glyph-name="Adieresis" unicode="&#xc4;" horiz-adv-x="741" 
d="M-1 0l406 708h129l208 -708h-176l-40 150h-275l-80 -150h-172zM492 282l-56 220l-117 -220h173zM372 753c-47 0 -78 40 -71 86c6 43 48 82 92 82c46 0 83 -34 76 -82s-48 -86 -97 -86zM580 753c-47 0 -78 40 -71 86c6 43 48 82 92 82c46 0 83 -34 76 -82s-48 -86 -97 -86
z" />
    <glyph glyph-name="Agrave" unicode="&#xc0;" horiz-adv-x="741" 
d="M-1 0l406 708h129l208 -708h-176l-40 150h-275l-80 -150h-172zM492 282l-56 220l-117 -220h173zM499 903l81 -144h-132l-153 144h204z" />
    <glyph glyph-name="Aring" unicode="&#xc5;" horiz-adv-x="741" 
d="M-1 0l406 708h129l208 -708h-176l-40 150h-275l-80 -150h-172zM492 282l-56 220l-117 -220h173zM474 731c-61 0 -104 50 -96 111c9 61 66 111 127 111s104 -50 95 -111c-8 -61 -65 -111 -126 -111zM438 842c-4 -28 16 -51 44 -51s54 23 58 51s-15 51 -43 51
s-55 -23 -59 -51z" />
    <glyph glyph-name="Atilde" unicode="&#xc3;" horiz-adv-x="741" 
d="M-1 0l406 708h129l208 -708h-176l-40 150h-275l-80 -150h-172zM492 282l-56 220l-117 -220h173zM362 765h-79c20 67 71 138 146 138c33 0 57 -9 84 -21c17 -7 34 -15 54 -15c23 0 37 16 49 36h78c-24 -76 -65 -138 -149 -138c-29 0 -54 11 -76 21c-21 11 -40 21 -60 21
c-23 0 -39 -23 -47 -42z" />
    <glyph glyph-name="Ccedilla" unicode="&#xc7;" horiz-adv-x="685" 
d="M742 622l-133 -98c-26 37 -68 58 -126 58c-118 0 -219 -96 -237 -228c-19 -132 55 -228 168 -228c63 0 118 28 156 76l117 -97c-71 -84 -177 -123 -274 -123c-7 0 -13 0 -18 1l-35 -43c59 0 124 -9 114 -83c-10 -73 -102 -97 -153 -97c-40 0 -88 13 -121 30l32 47
c15 -6 41 -17 75 -17c31 0 67 6 70 32c4 24 -25 34 -45 34c-13 0 -24 -3 -37 -8l-28 29l65 82c-173 32 -276 167 -248 365c32 227 213 372 434 372c79 0 175 -27 224 -104z" />
    <glyph glyph-name="Eacute" unicode="&#xc9;" horiz-adv-x="630" 
d="M78 0l100 708h481l-21 -144h-325l-18 -132h307l-21 -144h-307l-20 -144h343l-20 -144h-499zM322 759l121 144h204l-193 -144h-132z" />
    <glyph glyph-name="Ecircumflex" unicode="&#xca;" horiz-adv-x="630" 
d="M78 0l100 708h481l-21 -144h-325l-18 -132h307l-21 -144h-307l-20 -144h343l-20 -144h-499zM621 759h-138l-52 78l-73 -78h-135l139 144h163z" />
    <glyph glyph-name="Edieresis" unicode="&#xcb;" horiz-adv-x="630" 
d="M78 0l100 708h481l-21 -144h-325l-18 -132h307l-21 -144h-307l-20 -144h343l-20 -144h-499zM316 753c-47 0 -78 40 -71 86c6 43 48 82 92 82c46 0 83 -34 76 -82s-48 -86 -97 -86zM524 753c-47 0 -78 40 -71 86c6 43 48 82 92 82c46 0 83 -34 76 -82s-48 -86 -97 -86z
" />
    <glyph glyph-name="Egrave" unicode="&#xc8;" horiz-adv-x="630" 
d="M78 0l100 708h481l-21 -144h-325l-18 -132h307l-21 -144h-307l-20 -144h343l-20 -144h-499zM443 903l81 -144h-132l-153 144h204z" />
    <glyph glyph-name="Iacute" unicode="&#xcd;" 
d="M70 0l100 708h156l-100 -708h-156zM155 759l121 144h204l-193 -144h-132z" />
    <glyph glyph-name="Icircumflex" unicode="&#xce;" 
d="M70 0l100 708h156l-100 -708h-156zM454 759h-138l-52 78l-73 -78h-135l139 144h163z" />
    <glyph glyph-name="Idieresis" unicode="&#xcf;" 
d="M70 0l100 708h156l-100 -708h-156zM149 753c-47 0 -78 40 -71 86c6 43 48 82 92 82c46 0 83 -34 76 -82s-48 -86 -97 -86zM357 753c-47 0 -78 40 -71 86c6 43 48 82 92 82c46 0 83 -34 76 -82s-48 -86 -97 -86z" />
    <glyph glyph-name="Igrave" unicode="&#xcc;" 
d="M70 0l100 708h156l-100 -708h-156zM276 903l81 -144h-132l-153 144h204z" />
    <glyph glyph-name="Ntilde" unicode="&#xd1;" horiz-adv-x="815" 
d="M72 0l100 708h212l231 -492h2l70 492h156l-100 -708h-204l-238 504h-2l-71 -504h-156zM399 765h-79c20 67 71 138 146 138c33 0 57 -9 84 -21c17 -7 34 -15 54 -15c23 0 37 16 49 36h78c-24 -76 -65 -138 -149 -138c-29 0 -54 11 -76 21c-21 11 -40 21 -60 21
c-23 0 -39 -23 -47 -42z" />
    <glyph glyph-name="Oacute" unicode="&#xd3;" horiz-adv-x="832" 
d="M84 354c32 227 213 372 434 372s362 -145 330 -372s-214 -372 -435 -372s-361 145 -329 372zM246 354c-19 -132 55 -228 188 -228s233 96 252 228c18 132 -55 228 -188 228s-234 -96 -252 -228zM423 759l121 144h204l-193 -144h-132z" />
    <glyph glyph-name="Ocircumflex" unicode="&#xd4;" horiz-adv-x="832" 
d="M84 354c32 227 213 372 434 372s362 -145 330 -372s-214 -372 -435 -372s-361 145 -329 372zM246 354c-19 -132 55 -228 188 -228s233 96 252 228c18 132 -55 228 -188 228s-234 -96 -252 -228zM722 759h-138l-52 78l-73 -78h-135l139 144h163z" />
    <glyph glyph-name="Odieresis" unicode="&#xd6;" horiz-adv-x="832" 
d="M84 354c32 227 213 372 434 372s362 -145 330 -372s-214 -372 -435 -372s-361 145 -329 372zM246 354c-19 -132 55 -228 188 -228s233 96 252 228c18 132 -55 228 -188 228s-234 -96 -252 -228zM417 753c-47 0 -78 40 -71 86c6 43 48 82 92 82c46 0 83 -34 76 -82
s-48 -86 -97 -86zM625 753c-47 0 -78 40 -71 86c6 43 48 82 92 82c46 0 83 -34 76 -82s-48 -86 -97 -86z" />
    <glyph glyph-name="Ograve" unicode="&#xd2;" horiz-adv-x="832" 
d="M84 354c32 227 213 372 434 372s362 -145 330 -372s-214 -372 -435 -372s-361 145 -329 372zM246 354c-19 -132 55 -228 188 -228s233 96 252 228c18 132 -55 228 -188 228s-234 -96 -252 -228zM544 903l81 -144h-132l-153 144h204z" />
    <glyph glyph-name="Otilde" unicode="&#xd5;" horiz-adv-x="832" 
d="M84 354c32 227 213 372 434 372s362 -145 330 -372s-214 -372 -435 -372s-361 145 -329 372zM246 354c-19 -132 55 -228 188 -228s233 96 252 228c18 132 -55 228 -188 228s-234 -96 -252 -228zM407 765h-79c20 67 71 138 146 138c33 0 57 -9 84 -21c17 -7 34 -15 54 -15
c23 0 37 16 49 36h78c-24 -76 -65 -138 -149 -138c-29 0 -54 11 -76 21c-21 11 -40 21 -60 21c-23 0 -39 -23 -47 -42z" />
    <glyph glyph-name="Scaron" unicode="&#x160;" horiz-adv-x="574" 
d="M621 652l-124 -117c-20 32 -68 47 -106 47c-44 0 -108 -20 -115 -73c-19 -129 319 -46 284 -294c-22 -158 -160 -233 -306 -233c-91 0 -167 27 -225 89l128 122c26 -42 75 -67 127 -67c51 0 111 24 118 74c18 130 -323 60 -290 296c21 151 163 230 302 230
c80 0 154 -21 207 -74zM215 930h138l52 -78l73 78h135l-140 -144h-163z" />
    <glyph glyph-name="Uacute" unicode="&#xda;" horiz-adv-x="741" 
d="M769 708l-62 -435c-23 -167 -143 -291 -339 -291c-197 0 -281 124 -258 291l62 435h156l-61 -429c-12 -87 39 -153 122 -153c82 0 151 66 163 153l61 429h156zM378 759l121 144h204l-193 -144h-132z" />
    <glyph glyph-name="Ucircumflex" unicode="&#xdb;" horiz-adv-x="741" 
d="M769 708l-62 -435c-23 -167 -143 -291 -339 -291c-197 0 -281 124 -258 291l62 435h156l-61 -429c-12 -87 39 -153 122 -153c82 0 151 66 163 153l61 429h156zM677 759h-138l-52 78l-73 -78h-135l139 144h163z" />
    <glyph glyph-name="Udieresis" unicode="&#xdc;" horiz-adv-x="741" 
d="M769 708l-62 -435c-23 -167 -143 -291 -339 -291c-197 0 -281 124 -258 291l62 435h156l-61 -429c-12 -87 39 -153 122 -153c82 0 151 66 163 153l61 429h156zM372 753c-47 0 -78 40 -71 86c6 43 48 82 92 82c46 0 83 -34 76 -82s-48 -86 -97 -86zM580 753
c-47 0 -78 40 -71 86c6 43 48 82 92 82c46 0 83 -34 76 -82s-48 -86 -97 -86z" />
    <glyph glyph-name="Ugrave" unicode="&#xd9;" horiz-adv-x="741" 
d="M769 708l-62 -435c-23 -167 -143 -291 -339 -291c-197 0 -281 124 -258 291l62 435h156l-61 -429c-12 -87 39 -153 122 -153c82 0 151 66 163 153l61 429h156zM499 903l81 -144h-132l-153 144h204z" />
    <glyph glyph-name="Yacute" unicode="&#xdd;" horiz-adv-x="648" 
d="M246 0l42 302l-208 406h194l112 -265l197 265h185l-324 -406l-42 -302h-156zM334 786l122 144h204l-194 -144h-132z" />
    <glyph glyph-name="Ydieresis" unicode="&#x178;" horiz-adv-x="648" 
d="M246 0l42 302l-208 406h194l112 -265l197 265h185l-324 -406l-42 -302h-156zM329 780c-47 0 -78 40 -71 86c6 43 48 82 92 82c46 0 82 -34 76 -82c-7 -48 -48 -86 -97 -86zM537 780c-47 0 -78 40 -71 86c6 43 48 82 92 82c46 0 82 -34 76 -82c-7 -48 -48 -86 -97 -86z
" />
    <glyph glyph-name="Zcaron" unicode="&#x17d;" horiz-adv-x="630" 
d="M35 0l20 144l419 426h-346l20 138h535l-20 -138l-412 -426h364l-20 -144h-560zM243 930h138l52 -78l73 78h135l-140 -144h-163z" />
    <glyph glyph-name="aacute" unicode="&#xe1;" horiz-adv-x="537" 
d="M358 0l9 61h-2c-41 -52 -104 -73 -165 -73c-91 0 -165 52 -152 150c24 168 228 171 353 171c8 53 -31 87 -83 87c-49 0 -93 -22 -130 -58l-69 82c62 52 146 78 225 78c175 0 209 -89 187 -251l-35 -247h-138zM388 213h-37c-46 0 -149 -4 -158 -70c-5 -36 31 -53 64 -53
c59 0 118 31 126 91zM248 564l122 144h204l-194 -144h-132z" />
    <glyph glyph-name="acircumflex" unicode="&#xe2;" horiz-adv-x="537" 
d="M358 0l9 61h-2c-41 -52 -104 -73 -165 -73c-91 0 -165 52 -152 150c24 168 228 171 353 171c8 53 -31 87 -83 87c-49 0 -93 -22 -130 -58l-69 82c62 52 146 78 225 78c175 0 209 -89 187 -251l-35 -247h-138zM388 213h-37c-46 0 -149 -4 -158 -70c-5 -36 31 -53 64 -53
c59 0 118 31 126 91zM547 564h-138l-52 78l-73 -78h-135l140 144h163z" />
    <glyph glyph-name="adieresis" unicode="&#xe4;" horiz-adv-x="537" 
d="M358 0l9 61h-2c-41 -52 -104 -73 -165 -73c-91 0 -165 52 -152 150c24 168 228 171 353 171c8 53 -31 87 -83 87c-49 0 -93 -22 -130 -58l-69 82c62 52 146 78 225 78c175 0 209 -89 187 -251l-35 -247h-138zM388 213h-37c-46 0 -149 -4 -158 -70c-5 -36 31 -53 64 -53
c59 0 118 31 126 91zM242 558c-47 0 -77 40 -70 86c6 43 48 82 92 82c46 0 82 -34 76 -82c-7 -48 -49 -86 -98 -86zM450 558c-47 0 -77 40 -70 86c6 43 48 82 92 82c46 0 82 -34 76 -82c-7 -48 -49 -86 -98 -86z" />
    <glyph glyph-name="agrave" unicode="&#xe0;" horiz-adv-x="537" 
d="M358 0l9 61h-2c-41 -52 -104 -73 -165 -73c-91 0 -165 52 -152 150c24 168 228 171 353 171c8 53 -31 87 -83 87c-49 0 -93 -22 -130 -58l-69 82c62 52 146 78 225 78c175 0 209 -89 187 -251l-35 -247h-138zM388 213h-37c-46 0 -149 -4 -158 -70c-5 -36 31 -53 64 -53
c59 0 118 31 126 91zM370 708l80 -144h-132l-152 144h204z" />
    <glyph glyph-name="aring" unicode="&#xe5;" horiz-adv-x="537" 
d="M358 0l9 61h-2c-41 -52 -104 -73 -165 -73c-91 0 -165 52 -152 150c24 168 228 171 353 171c8 53 -31 87 -83 87c-49 0 -93 -22 -130 -58l-69 82c62 52 146 78 225 78c175 0 209 -89 187 -251l-35 -247h-138zM388 213h-37c-46 0 -149 -4 -158 -70c-5 -36 31 -53 64 -53
c59 0 118 31 126 91zM346 545c-61 0 -104 50 -96 111c9 61 66 111 127 111s104 -50 95 -111c-8 -61 -65 -111 -126 -111zM310 656c-4 -28 16 -51 44 -51s54 23 58 51s-16 51 -44 51s-54 -23 -58 -51z" />
    <glyph glyph-name="atilde" unicode="&#xe3;" horiz-adv-x="537" 
d="M358 0l9 61h-2c-41 -52 -104 -73 -165 -73c-91 0 -165 52 -152 150c24 168 228 171 353 171c8 53 -31 87 -83 87c-49 0 -93 -22 -130 -58l-69 82c62 52 146 78 225 78c175 0 209 -89 187 -251l-35 -247h-138zM388 213h-37c-46 0 -149 -4 -158 -70c-5 -36 31 -53 64 -53
c59 0 118 31 126 91zM232 570h-79c21 67 72 138 147 138c33 0 56 -9 84 -21c17 -7 33 -15 53 -15c23 0 38 16 50 36h78c-24 -76 -66 -138 -150 -138c-29 0 -53 11 -75 21c-21 11 -40 21 -60 21c-23 0 -39 -23 -48 -42z" />
    <glyph glyph-name="ccedilla" unicode="&#xe7;" horiz-adv-x="482" 
d="M542 433l-114 -104c-12 21 -38 37 -69 37c-75 0 -127 -50 -137 -123s28 -123 103 -123c33 0 59 17 79 37l84 -104c-53 -48 -125 -65 -182 -65c-3 0 -7 0 -9 1l-39 -49c59 0 124 -9 114 -83c-10 -73 -102 -97 -153 -97c-40 0 -88 13 -121 30l32 47c15 -6 41 -17 75 -17
c31 0 67 6 70 32c4 24 -25 34 -45 34c-13 0 -24 -3 -37 -8l-28 29l73 90c-113 25 -184 116 -166 246c22 155 156 255 306 255c57 0 124 -17 164 -65z" />
    <glyph glyph-name="eacute" unicode="&#xe9;" horiz-adv-x="574" 
d="M431 161l94 -77c-57 -61 -141 -96 -219 -96c-150 0 -256 100 -234 255s156 255 306 255c140 0 214 -100 192 -255l-6 -47h-348c4 -57 41 -94 99 -94c49 0 86 25 116 59zM230 298h198c8 50 -25 92 -79 92c-66 0 -109 -45 -119 -92zM266 564l122 144h204l-194 -144h-132z
" />
    <glyph glyph-name="ecircumflex" unicode="&#xea;" horiz-adv-x="574" 
d="M431 161l94 -77c-57 -61 -141 -96 -219 -96c-150 0 -256 100 -234 255s156 255 306 255c140 0 214 -100 192 -255l-6 -47h-348c4 -57 41 -94 99 -94c49 0 86 25 116 59zM230 298h198c8 50 -25 92 -79 92c-66 0 -109 -45 -119 -92zM565 564h-138l-52 78l-73 -78h-135
l140 144h163z" />
    <glyph glyph-name="edieresis" unicode="&#xeb;" horiz-adv-x="574" 
d="M431 161l94 -77c-57 -61 -141 -96 -219 -96c-150 0 -256 100 -234 255s156 255 306 255c140 0 214 -100 192 -255l-6 -47h-348c4 -57 41 -94 99 -94c49 0 86 25 116 59zM230 298h198c8 50 -25 92 -79 92c-66 0 -109 -45 -119 -92zM260 558c-47 0 -77 40 -70 86
c6 43 48 82 92 82c46 0 82 -34 76 -82c-7 -48 -49 -86 -98 -86zM468 558c-47 0 -77 40 -70 86c6 43 48 82 92 82c46 0 82 -34 76 -82c-7 -48 -49 -86 -98 -86z" />
    <glyph glyph-name="egrave" unicode="&#xe8;" horiz-adv-x="574" 
d="M431 161l94 -77c-57 -61 -141 -96 -219 -96c-150 0 -256 100 -234 255s156 255 306 255c140 0 214 -100 192 -255l-6 -47h-348c4 -57 41 -94 99 -94c49 0 86 25 116 59zM230 298h198c8 50 -25 92 -79 92c-66 0 -109 -45 -119 -92zM388 708l80 -144h-132l-152 144h204z
" />
    <glyph glyph-name="iacute" unicode="&#xed;" horiz-adv-x="260" 
d="M55 0l68 486h150l-68 -486h-150zM109 564l122 144h204l-194 -144h-132z" />
    <glyph glyph-name="icircumflex" unicode="&#xee;" horiz-adv-x="260" 
d="M55 0l68 486h150l-68 -486h-150zM408 564h-138l-52 78l-73 -78h-135l140 144h163z" />
    <glyph glyph-name="idieresis" unicode="&#xef;" horiz-adv-x="260" 
d="M55 0l68 486h150l-68 -486h-150zM103 558c-47 0 -77 40 -70 86c6 43 48 82 92 82c46 0 82 -34 76 -82c-7 -48 -49 -86 -98 -86zM311 558c-47 0 -77 40 -70 86c6 43 48 82 92 82c46 0 82 -34 76 -82c-7 -48 -49 -86 -98 -86z" />
    <glyph glyph-name="igrave" unicode="&#xec;" horiz-adv-x="260" 
d="M55 0l68 486h150l-68 -486h-150zM231 708l80 -144h-132l-152 144h204z" />
    <glyph glyph-name="ntilde" unicode="&#xf1;" horiz-adv-x="574" 
d="M53 0l68 486h144l-9 -66h2c25 38 80 78 153 78c152 0 166 -100 148 -230l-38 -268h-150l33 238c8 56 17 128 -60 128c-78 0 -98 -61 -107 -124l-34 -242h-150zM250 570h-79c21 67 72 138 147 138c33 0 56 -9 84 -21c17 -7 33 -15 53 -15c23 0 38 16 50 36h78
c-24 -76 -66 -138 -150 -138c-29 0 -53 11 -75 21c-21 11 -40 21 -60 21c-23 0 -39 -23 -48 -42z" />
    <glyph glyph-name="oacute" unicode="&#xf3;" horiz-adv-x="610" 
d="M69 243c22 155 156 255 306 255s256 -100 234 -255s-156 -255 -306 -255s-256 100 -234 255zM219 243c-10 -73 28 -123 103 -123s127 50 137 123s-28 123 -103 123s-127 -50 -137 -123zM284 564l122 144h204l-194 -144h-132z" />
    <glyph glyph-name="ocircumflex" unicode="&#xf4;" horiz-adv-x="610" 
d="M69 243c22 155 156 255 306 255s256 -100 234 -255s-156 -255 -306 -255s-256 100 -234 255zM219 243c-10 -73 28 -123 103 -123s127 50 137 123s-28 123 -103 123s-127 -50 -137 -123zM583 564h-138l-52 78l-73 -78h-135l140 144h163z" />
    <glyph glyph-name="odieresis" unicode="&#xf6;" horiz-adv-x="610" 
d="M69 243c22 155 156 255 306 255s256 -100 234 -255s-156 -255 -306 -255s-256 100 -234 255zM219 243c-10 -73 28 -123 103 -123s127 50 137 123s-28 123 -103 123s-127 -50 -137 -123zM278 558c-47 0 -77 40 -70 86c6 43 48 82 92 82c46 0 82 -34 76 -82
c-7 -48 -49 -86 -98 -86zM486 558c-47 0 -77 40 -70 86c6 43 48 82 92 82c46 0 82 -34 76 -82c-7 -48 -49 -86 -98 -86z" />
    <glyph glyph-name="ograve" unicode="&#xf2;" horiz-adv-x="610" 
d="M69 243c22 155 156 255 306 255s256 -100 234 -255s-156 -255 -306 -255s-256 100 -234 255zM219 243c-10 -73 28 -123 103 -123s127 50 137 123s-28 123 -103 123s-127 -50 -137 -123zM406 708l80 -144h-132l-152 144h204z" />
    <glyph glyph-name="otilde" unicode="&#xf5;" horiz-adv-x="610" 
d="M69 243c22 155 156 255 306 255s256 -100 234 -255s-156 -255 -306 -255s-256 100 -234 255zM219 243c-10 -73 28 -123 103 -123s127 50 137 123s-28 123 -103 123s-127 -50 -137 -123zM268 570h-79c21 67 72 138 147 138c33 0 56 -9 84 -21c17 -7 33 -15 53 -15
c23 0 38 16 50 36h78c-24 -76 -66 -138 -150 -138c-29 0 -53 11 -75 21c-21 11 -40 21 -60 21c-23 0 -39 -23 -48 -42z" />
    <glyph glyph-name="scaron" unicode="&#x161;" horiz-adv-x="463" 
d="M481 434l-105 -91c-18 27 -45 41 -81 41c-25 0 -57 -11 -61 -40c-10 -72 252 -11 226 -196c-18 -124 -143 -160 -247 -160c-68 0 -140 17 -181 66l105 101c23 -34 53 -53 98 -53c34 0 70 9 73 35c11 78 -251 12 -225 197c16 114 125 164 227 164c64 0 133 -16 171 -64z
M129 708h138l52 -78l73 78h135l-140 -144h-163z" />
    <glyph glyph-name="uacute" unicode="&#xfa;" horiz-adv-x="574" 
d="M589 486l-68 -486h-144l9 66h-2c-25 -38 -80 -78 -153 -78c-152 0 -166 100 -147 230l37 268h150l-33 -238c-8 -56 -17 -128 60 -128c78 0 98 61 107 124l34 242h150zM266 564l122 144h204l-194 -144h-132z" />
    <glyph glyph-name="ucircumflex" unicode="&#xfb;" horiz-adv-x="574" 
d="M589 486l-68 -486h-144l9 66h-2c-25 -38 -80 -78 -153 -78c-152 0 -166 100 -147 230l37 268h150l-33 -238c-8 -56 -17 -128 60 -128c78 0 98 61 107 124l34 242h150zM565 564h-138l-52 78l-73 -78h-135l140 144h163z" />
    <glyph glyph-name="udieresis" unicode="&#xfc;" horiz-adv-x="574" 
d="M589 486l-68 -486h-144l9 66h-2c-25 -38 -80 -78 -153 -78c-152 0 -166 100 -147 230l37 268h150l-33 -238c-8 -56 -17 -128 60 -128c78 0 98 61 107 124l34 242h150zM260 558c-47 0 -77 40 -70 86c6 43 48 82 92 82c46 0 82 -34 76 -82c-7 -48 -49 -86 -98 -86zM468 558
c-47 0 -77 40 -70 86c6 43 48 82 92 82c46 0 82 -34 76 -82c-7 -48 -49 -86 -98 -86z" />
    <glyph glyph-name="ugrave" unicode="&#xf9;" horiz-adv-x="574" 
d="M589 486l-68 -486h-144l9 66h-2c-25 -38 -80 -78 -153 -78c-152 0 -166 100 -147 230l37 268h150l-33 -238c-8 -56 -17 -128 60 -128c78 0 98 61 107 124l34 242h150zM388 708l80 -144h-132l-152 144h204z" />
    <glyph glyph-name="yacute" unicode="&#xfd;" horiz-adv-x="556" 
d="M621 486l-299 -565c-55 -103 -86 -161 -229 -161c-38 0 -75 6 -109 18l37 123c22 -10 43 -15 68 -15c68 0 83 29 112 82l14 28l-144 490h162l80 -321h2l152 321h154zM257 564l122 144h204l-194 -144h-132z" />
    <glyph glyph-name="ydieresis" unicode="&#xff;" horiz-adv-x="556" 
d="M621 486l-299 -565c-55 -103 -86 -161 -229 -161c-38 0 -75 6 -109 18l37 123c22 -10 43 -15 68 -15c68 0 83 29 112 82l14 28l-144 490h162l80 -321h2l152 321h154zM251 558c-47 0 -77 40 -70 86c6 43 48 82 92 82c46 0 82 -34 76 -82c-7 -48 -49 -86 -98 -86zM459 558
c-47 0 -77 40 -70 86c6 43 48 82 92 82c46 0 82 -34 76 -82c-7 -48 -49 -86 -98 -86z" />
    <glyph glyph-name="zcaron" unicode="&#x17e;" horiz-adv-x="500" 
d="M34 0l21 150l282 216h-246l17 120h420l-20 -144l-295 -222h270l-17 -120h-432zM147 708h138l52 -78l73 78h135l-140 -144h-163z" />
    <glyph glyph-name="Delta" unicode="&#x2206;" horiz-adv-x="693" 
d="M27 0l11 78l330 643h165l143 -642l-11 -79h-638zM185 109h345l-70 293c-9 53 -28 135 -33 178h-3c-14 -34 -53 -109 -76 -163z" />
    <glyph glyph-name="Omega" unicode="&#x2126;" horiz-adv-x="751" 
d="M197 109l1 3c-55 56 -107 151 -89 280c25 176 176 324 370 324c206 0 294 -167 273 -318c-18 -130 -96 -229 -171 -286l-1 -3h145l-15 -109h-283l11 81c73 42 148 130 170 288c17 124 -30 236 -146 236c-110 0 -197 -102 -217 -241c-20 -144 26 -244 89 -283l-11 -81
h-284l15 109h143z" />
    <glyph glyph-name="uni03BC" unicode="&#x3bc;" horiz-adv-x="574" 
d="M589 486l-68 -486h-144l9 66h-2c-25 -38 -80 -78 -153 -78c-11 0 -21 1 -29 3l-31 -219h-150l100 714h150l-33 -238c-8 -56 -17 -128 60 -128c78 0 98 61 107 124l34 242h150z" />
    <glyph glyph-name="pi" unicode="&#x3c0;" horiz-adv-x="637" 
d="M670 416h-74l-36 -262c-11 -75 -12 -122 -8 -154h-134c-10 21 -7 75 3 147l37 269h-142c-20 -110 -74 -315 -124 -416h-134c50 116 105 306 122 416c-49 0 -80 -3 -104 -10l-2 89c29 21 86 35 178 35h444z" />
    <glyph glyph-name="Euro" unicode="&#x20ac;" horiz-adv-x="592" 
d="M589 75l-68 101c-33 -35 -73 -58 -128 -58c-68 0 -104 39 -115 104h160l42 90h-204c0 7 1 13 2 20l3 21c2 16 5 30 8 45h226l43 92h-235c38 68 94 96 162 96c47 0 88 -12 106 -25l64 130c-25 16 -105 29 -151 29c-160 0 -278 -79 -339 -230h-52l-44 -92h68
c-3 -16 -7 -32 -9 -49l-3 -19c0 -6 -1 -12 -1 -18h-42l-41 -90h81c10 -152 89 -234 238 -234c89 0 177 35 229 87z" />
    <glyph glyph-name="afii61289" unicode="&#x2113;" horiz-adv-x="546" 
d="M497 194l48 -58c-71 -107 -159 -145 -243 -145c-123 0 -167 74 -167 163c0 4 1 7 0 11c-19 -13 -38 -28 -58 -40l-25 71c34 25 66 46 96 70l35 248c26 183 121 262 227 262c104 0 140 -82 126 -181c-17 -121 -113 -232 -259 -351l-4 -39c-8 -68 26 -104 76 -104
c57 0 112 46 148 93zM316 522l-21 -155c81 78 142 162 152 231c7 51 -3 83 -44 83c-30 0 -69 -35 -87 -159z" />
    <glyph glyph-name="estimated" unicode="&#x212e;" horiz-adv-x="984" 
d="M949 344h-659c-3 0 -5 -1 -5 -5v-199c0 -8 3 -16 9 -23c64 -66 151 -108 249 -108c105 0 198 48 262 121h58c-72 -85 -190 -141 -321 -141c-224 0 -406 163 -406 365s182 366 406 366c225 0 407 -164 407 -366v-10zM799 370v200c0 9 -3 17 -9 24
c-64 63 -151 104 -247 104c-97 0 -184 -42 -248 -107c-7 -7 -10 -16 -10 -25v-196c0 -2 2 -7 5 -7h505c3 0 4 5 4 7z" />
    <glyph glyph-name="partialdiff" unicode="&#x2202;" horiz-adv-x="606" 
d="M197 638l-25 99c35 24 103 60 204 60c158 0 274 -134 239 -387c-35 -248 -171 -418 -357 -418c-151 0 -202 135 -187 241c22 161 137 264 264 264c87 0 132 -57 144 -83h1c2 8 5 25 6 33c18 126 -36 239 -144 239c-65 0 -116 -28 -145 -48zM287 104h1
c77 0 140 108 164 200c-5 31 -39 86 -103 86c-71 0 -131 -76 -143 -161c-10 -69 22 -125 81 -125z" />
    <glyph glyph-name="product" unicode="&#x220f;" horiz-adv-x="858" 
d="M833 583h-108v-680h-135v680h-223v-680h-136v680h-107v122h709v-122z" />
    <glyph glyph-name="summation" unicode="&#x2211;" horiz-adv-x="686" 
d="M669 -97h-546v85l251 316l-241 307v94h518v-115h-333v-4l211 -261l-234 -295v-3h374v-124z" />
    <glyph glyph-name="uni2219" unicode="&#x2219;" 
d="M96 283c7 51 54 92 105 92s86 -41 79 -92s-54 -92 -105 -92s-86 41 -79 92z" />
    <glyph glyph-name="radical" unicode="&#x221a;" horiz-adv-x="724" 
d="M736 846l-237 -988h-109l-157 440l-77 -31l-22 74l180 74l109 -322c8 -31 16 -63 21 -87l2 -1c4 23 10 59 17 94l178 747h95z" />
    <glyph glyph-name="infinity" unicode="&#x221e;" horiz-adv-x="868" 
d="M819 292v-1c0 -113 -82 -180 -167 -180c-58 0 -116 26 -184 117c-53 -66 -107 -117 -190 -117c-86 0 -164 71 -164 175s75 177 173 177c76 0 132 -45 185 -114c42 48 94 115 186 114c91 0 161 -68 161 -171zM287 185h1c57 0 101 51 140 97c-42 57 -78 109 -145 109
c-57 0 -93 -45 -93 -106c0 -55 41 -100 97 -100zM651 391h-1c-62 0 -108 -64 -141 -102c62 -77 95 -104 146 -104c57 0 88 55 88 100c0 62 -37 106 -92 106z" />
    <glyph glyph-name="integral" unicode="&#x222b;" horiz-adv-x="510" 
d="M491 861l-13 -92c-11 5 -24 9 -38 9c-20 0 -40 -8 -53 -26c-21 -28 -27 -85 -27 -168c0 -165 15 -300 15 -483c0 -95 -15 -161 -37 -201c-29 -55 -84 -76 -136 -76c-33 0 -66 9 -82 17l17 95c10 -4 26 -11 46 -11c17 0 34 6 46 20c18 25 28 66 28 156
c0 185 -16 323 -16 496c0 118 18 183 63 229c30 33 78 47 123 47c27 0 52 -7 64 -12z" />
    <glyph glyph-name="approxequal" unicode="&#x2248;" horiz-adv-x="639" 
d="M552 462l47 -46c-34 -63 -84 -105 -142 -105c-43 0 -70 13 -117 41c-30 18 -56 34 -90 34c-46 0 -72 -37 -98 -74l-49 45c31 60 89 105 153 105c50 0 83 -22 110 -37c38 -23 59 -37 91 -37c40 0 66 29 95 74zM552 268l47 -45c-34 -62 -83 -106 -143 -106
c-42 0 -71 15 -116 41c-31 19 -56 35 -89 35c-47 0 -73 -37 -99 -75l-49 46c31 59 89 105 153 105c50 0 83 -22 110 -37c32 -18 56 -37 90 -37c41 0 66 28 96 73z" />
    <glyph glyph-name="notequal" unicode="&#x2260;" horiz-adv-x="651" 
d="M501 523l-40 -90h141v-78h-171l-61 -138h232v-77h-263l-52 -118l-61 26l41 92h-140v77h171l60 138h-231v78h261l51 115z" />
    <glyph glyph-name="lessequal" unicode="&#x2264;" horiz-adv-x="664" 
d="M613 102l-468 228v84l468 228v-90l-389 -178v-2l389 -180v-90zM616 -15h-475v79h475v-79z" />
    <glyph glyph-name="greaterequal" unicode="&#x2265;" horiz-adv-x="665" 
d="M147 642l468 -228v-84l-468 -228v90l389 179v3l-389 178v90zM614 -15h-472v79h472v-79z" />
    <glyph glyph-name="lozenge" unicode="&#x25ca;" horiz-adv-x="723" 
d="M673 352l-209 -403h-108l-203 403l208 403h108zM553 349l-119 240c-7 18 -16 41 -19 58h-4c-4 -18 -12 -39 -19 -58l-120 -234l121 -244c7 -19 14 -42 17 -55h5c3 14 12 43 18 53z" />
    <glyph glyph-name="uni00A0" unicode="&#xa0;" 
 />
    <glyph glyph-name="uni00AD" unicode="&#xad;" 
d="M314 309l-16 -120h-246l16 120h246z" />
    <glyph glyph-name="uni02C9" unicode="&#x2c9;" horiz-adv-x="260" 
d="M397 687l-14 -96h-340l14 96h340z" />
    <glyph glyph-name="uni03A9" unicode="&#x3a9;" horiz-adv-x="751" 
d="M197 109l1 3c-55 56 -107 151 -89 280c25 176 176 324 370 324c206 0 294 -167 273 -318c-18 -130 -96 -229 -171 -286l-1 -3h145l-15 -109h-283l11 81c73 42 148 130 170 288c17 124 -30 236 -146 236c-110 0 -197 -102 -217 -241c-20 -144 26 -244 89 -283l-11 -81
h-284l15 109h143z" />
    <glyph glyph-name="uni2215" unicode="&#x2215;" horiz-adv-x="167" 
d="M-159 11l507 729l77 -47l-514 -725z" />
    </font>
</defs>
</svg>
